  0
SECTION
  2
HEADER
  9
$ACADVER
  1
AC1004
  9
$ANGBASE
 50
0.000000
  9
$ANGDIR
 70
     0
  9
$ATTDIA
 70
     0
  9
$ATTMODE
 70
     1
  9
$ATTREQ
 70
     1
  9
$AUNITS
 70
     0
  9
$AUPREC
 70
     0
  9
$AXISMODE
 70
     0
  9
$AXISUNIT
 10
0.000000
 20
0.000000
  9
$BLIPMODE
 70
     1
  9
$CECOLOR
 62
   256
  9
$CELTYPE
  6
BYLAYER
  9
$CHAMFERA
 40
0.000000
  9
$CHAMFERB
 40
0.000000
  9
$CLAYER
  8
0
  9
$COORDS
 70
     0
  9
$DIMALT
 70
     0
  9
$DIMALTD
 70
     2
  9
$DIMALTF
 40
25.400000
  9
$DIMAPOST
  1

  9
$DIMASO
 70
     1
  9
$DIMASZ
 40
0.153877
  9
$DIMBLK
  1

  9
$DIMBLK1
  1

  9
$DIMBLK2
  1

  9
$DIMCEN
 40
9.000000E-02
  9
$DIMDLE
 40
0.000000
  9
$DIMDLI
 40
0.380000
  9
$DIMEXE
 40
0.150000
  9
$DIMEXO
 40
0.100000
  9
$DIMLFAC
 40
1.000000
  9
$DIMLIM
 70
     0
  9
$DIMPOST
  1

  9
$DIMRND
 40
0.000000
  9
$DIMSCALE
 40
1.000000
  9
$DIMSE1
 70
     0
  9
$DIMSE2
 70
     0
  9
$DIMSHO
 70
     0
  9
$DIMTAD
 70
     0
  9
$DIMTIH
 70
     0
  9
$DIMTM
 40
0.000000
  9
$DIMTOH
 70
     1
  9
$DIMTOL
 70
     0
  9
$DIMTP
 40
0.000000
  9
$DIMTSZ
 40
0.000000
  9
$DIMTXT
 40
0.125000
  9
$DIMZIN
 70
     0
  9
$DRAGMODE
 70
     1
  9
$DWGCODEPAGE
  3
ansi_1252
  9
$ELEVATION
 40
0.000000
  9
$EXTMAX
 10
14.261988
 20
1.330887
 30
0.000000
  9
$EXTMIN
 10
-7.453340
 20
-10.276760
 30
0.000000
  9
$FASTZOOM
 70
     1
  9
$FILLETRAD
 40
6.250000E-02
  9
$FILLMODE
 70
     1
  9
$GRIDMODE
 70
     0
  9
$GRIDUNIT
 10
0.000000
 20
0.000000
  9
$INSBASE
 10
0.000000
 20
0.000000
 30
0.000000
  9
$LIMCHECK
 70
     0
  9
$LIMMAX
 10
14.261988
 20
1.330887
  9
$LIMMIN
 10
-7.453340
 20
-10.276760
  9
$LTSCALE
 40
1.000000
  9
$LUNITS
 70
     2
  9
$LUPREC
 70
     3
  9
$MEASUREMENT
 70
     0
  9
$MENU
  1
ACAD
  9
$MIRRTEXT
 70
     0
  9
$ORTHOMODE
 70
     0
  9
$OSMODE
 70
     0
  9
$PDMODE
 70
     0
  9
$PDSIZE
 40
0.000000
  9
$PLINEWID
 40
0.000000
  9
$PROXYGRAPHICS
 70
     0
  9
$QTEXTMODE
 70
     0
  9
$REGENMODE
 70
     1
  9
$SKETCHINC
 40
0.100000
  9
$SKPOLY
 70
     0
  9
$SNAPANG
 50
0.000000
  9
$SNAPBASE
 10
0.000000
 20
0.000000
  9
$SNAPISOPAIR
 70
     0
  9
$SNAPMODE
 70
     0
  9
$SNAPSTYLE
 70
     0
  9
$SNAPUNIT
 10
1.000000
 20
1.000000
  9
$SPLFRAME
 70
     0
  9
$SPLINESEGS
 70
     8
  9
$TDCREATE
 40
2452711.394803
  9
$TDINDWG
 40
0.000000
  9
$TDUPDATE
 40
2452711.394803
  9
$TDUSRTIMER
 40
0.000000
  9
$TEXTSIZE
 40
0.125000
  9
$TEXTSTYLE
  7
STANDARD
  9
$THICKNESS
 40
0.000000
  9
$TRACEWID
 40
5.000000E-02
  9
$USERI1
 70
     0
  9
$USERI2
 70
     0
  9
$USERI3
 70
     0
  9
$USERI4
 70
     0
  9
$USERI5
 70
     0
  9
$USERR1
 40
0.000000
  9
$USERR2
 40
0.000000
  9
$USERR3
 40
0.000000
  9
$USERR4
 40
0.000000
  9
$USERR5
 40
0.000000
  9
$USRTIMER
 70
     1
  9
$VIEWCTR
 10
3.404324
 20
-4.472937
  9
$VIEWDIR
 10
0.000000
 20
0.000000
 30
1.000000
  9
$VIEWSIZE
 40
11.607647
  0
ENDSEC
  0
SECTION
  2
TABLES
  0
TABLE
  2
LTYPE
 70
     3
  0
LTYPE
  2
SOLID
  3
Solid
 70
    64
 72
    65
 73
     0
 40
0.000000
  0
LTYPE
  2
CONSTRUCTION
  3
Construction
 70
    64
 72
    65
 73
     2
 40
4.000000E-02
 49
1.000000E-02
 49
-3.000000E-02
  0
LTYPE
  2
GAP
  3
Gap
 70
    64
 72
    65
 73
     3
 40
100.060000
 49
0.000000
 49
-6.000000E-02
 49
100.000000
  0
ENDTAB
  0
TABLE
  2
LAYER
 70
     1
  0
LAYER
  2
Layer0$C$L0
 70
     0
  6
SOLID
 62
     2
  0
ENDTAB
  0
TABLE
  2
STYLE
 70
     1
  0
STYLE
  2
STANDARD
  3
txt
  4

 40
0.000000
 41
1.000000
 42
0.125000
 50
0.000000
 70
     0
 71
     0
  0
ENDTAB
  0
TABLE
  2
DIMSTYLE
 70
     1
  0
DIMSTYLE
  2
DIM0
 70
     0
  3

  4

  5

  6

  7

 40
1.000000
 41
0.153877
 42
0.100000
 43
0.380000
 44
0.150000
 45
0.000000
 46
0.000000
 47
0.000000
 48
0.000000
140
0.125000
141
9.000000E-02
142
0.000000
143
1.000000
144
1.000000
145
0.000000
146
1.000000
147
6.250000E-02
 71
     0
 72
     0
 73
     1
 74
     1
 75
     0
 76
     0
 77
     0
 78
     0
170
     0
171
     0
172
     0
173
     0
174
     0
175
     0
176
     0
177
     0
178
     0
270
     2
271
     2
272
     2
273
     2
274
     0
275
     1
280
     0
281
     0
282
     0
283
     1
284
     0
285
     0
286
     0
287
     3
288
     0
  0
ENDTAB
  0
ENDSEC
  0
SECTION
  2
BLOCKS
  0
BLOCK
  8
Layer0$C$L0
  2
*D0
 70
     1
 10
0.000000
 20
0.000000
  0
SOLID
  8
Layer0$C$L0
 62
     0
 10
3.721270
 20
-6.289728
 11
3.660402
 21
-6.289728
 12
3.690836
 22
-6.442731
 13
3.690836
 23
-6.442731
  0
LINE
  8
Layer0$C$L0
 10
3.690836
 20
-6.442731
 11
3.690836
 21
-5.959383
  0
SOLID
  8
Layer0$C$L0
 62
     0
 10
3.660402
 20
-5.597734
 11
3.721270
 21
-5.597734
 12
3.690836
 22
-5.444731
 13
3.690836
 23
-5.444731
  0
LINE
  8
Layer0$C$L0
 10
3.690836
 20
-5.444731
 11
3.690836
 21
-5.709383
  0
LINE
  8
Layer0$C$L0
  6
GAP
 10
3.287575
 20
-6.442731
 11
3.840836
 21
-6.442731
  0
LINE
  8
Layer0$C$L0
  6
GAP
 10
2.940092
 20
-5.444731
 11
3.840836
 21
-5.444731
  0
TEXT
  8
Layer0$C$L0
 10
3.457548
 20
-5.896883
 40
0.125000
  1
1.00
 72
     5
 11
3.924123
 21
-5.896883
  0
ENDBLK
  8
Layer0$C$L0
  0
BLOCK
  8
Layer0$C$L0
  2
*D1
 70
     1
 10
0.000000
 20
0.000000
  0
SOLID
  8
Layer0$C$L0
 62
     0
 10
-2.479120
 20
-4.505535E-02
 11
-2.479120
 21
1.581282E-02
 12
-2.632122
 22
-1.462127E-02
 13
-2.632122
 23
-1.462127E-02
  0
SOLID
  8
Layer0$C$L0
 62
     0
 10
-1.963809
 20
1.581282E-02
 11
-1.963809
 21
-4.505535E-02
 12
-1.810807
 22
-1.462127E-02
 13
-1.810807
 23
-1.462127E-02
  0
LINE
  8
Layer0$C$L0
 10
-2.632122
 20
-1.462127E-02
 11
-1.810807
 21
-1.462127E-02
  0
LINE
  8
Layer0$C$L0
 10
-2.632122
 20
-1.462127E-02
 11
-2.773528
 21
-1.462127E-02
  0
LINE
  8
Layer0$C$L0
  6
GAP
 10
-2.632122
 20
-0.940323
 11
-2.632122
 21
0.135379
  0
LINE
  8
Layer0$C$L0
  6
GAP
 10
-1.810807
 20
-0.900000
 11
-1.810807
 21
0.135379
  0
TEXT
  8
Layer0$C$L0
 10
-3.302604
 20
-7.712127E-02
 40
0.125000
  1
0.82
 72
     5
 11
-2.836028
 21
-7.712127E-02
  0
ENDBLK
  8
Layer0$C$L0
  0
BLOCK
  8
Layer0$C$L0
  2
*D2
 70
     1
 10
0.000000
 20
0.000000
  0
SOLID
  8
Layer0$C$L0
 62
     0
 10
-0.828786
 20
-6.368549
 11
-0.889654
 21
-6.368549
 12
-0.859220
 22
-6.521552
 13
-0.859220
 23
-6.521552
  0
LINE
  8
Layer0$C$L0
 10
-0.859220
 20
-6.521552
 11
-0.859220
 21
-6.010858
  0
SOLID
  8
Layer0$C$L0
 62
     0
 10
-0.889655
 20
-5.444555
 11
-0.828786
 21
-5.444555
 12
-0.859220
 22
-5.291552
 13
-0.859220
 23
-5.291552
  0
LINE
  8
Layer0$C$L0
 10
-0.859220
 20
-5.291552
 11
-0.859220
 21
-5.760858
  0
LINE
  8
Layer0$C$L0
  6
GAP
 10
-2.014744
 20
-5.291552
 11
-0.709220
 21
-5.291552
  0
TEXT
  8
Layer0$C$L0
 10
-1.055249
 20
-5.948358
 40
0.125000
  1
1.23
 72
     5
 11
-0.663192
 21
-5.948358
  0
ENDBLK
  8
Layer0$C$L0
  0
BLOCK
  8
Layer0$C$L0
  2
*D3
 70
     1
 10
0.000000
 20
0.000000
  0
SOLID
  8
Layer0$C$L0
 62
     0
 10
-1.311904
 20
-6.368549
 11
-1.372772
 21
-6.368549
 12
-1.342338
 22
-6.521552
 13
-1.342338
 23
-6.521552
  0
LINE
  8
Layer0$C$L0
 10
-1.342338
 20
-6.521552
 11
-1.342338
 21
-6.285606
  0
SOLID
  8
Layer0$C$L0
 62
     0
 10
-1.372772
 20
-5.789554
 11
-1.311904
 21
-5.789554
 12
-1.342338
 22
-5.636552
 13
-1.342338
 23
-5.636552
  0
LINE
  8
Layer0$C$L0
 10
-1.342338
 20
-5.636552
 11
-1.342338
 21
-6.035606
  0
LINE
  8
Layer0$C$L0
  6
GAP
 10
-2.003482
 20
-5.636552
 11
-1.192338
 21
-5.636552
  0
TEXT
  8
Layer0$C$L0
 10
-1.488286
 20
-6.223106
 40
0.125000
  1
.88
 72
     5
 11
-1.196390
 21
-6.223106
  0
ENDBLK
  8
Layer0$C$L0
  0
BLOCK
  8
Layer0$C$L0
  2
*D4
 70
     1
 10
0.000000
 20
0.000000
  0
SOLID
  8
Layer0$C$L0
 62
     0
 10
-0.293845
 20
-6.368549
 11
-0.354713
 21
-6.368549
 12
-0.324279
 22
-6.521552
 13
-0.324279
 23
-6.521552
  0
LINE
  8
Layer0$C$L0
 10
-0.324279
 20
-6.521552
 11
-0.324279
 21
-5.476388
  0
SOLID
  8
Layer0$C$L0
 62
     0
 10
-0.354713
 20
-4.736554
 11
-0.293845
 21
-4.736554
 12
-0.324279
 22
-4.583552
 13
-0.324279
 23
-4.583552
  0
LINE
  8
Layer0$C$L0
 10
-0.324279
 20
-4.583552
 11
-0.324279
 21
-5.226388
  0
LINE
  8
Layer0$C$L0
  6
GAP
 10
-1.712603
 20
-6.521552
 11
-0.174279
 21
-6.521552
  0
LINE
  8
Layer0$C$L0
  6
GAP
 10
-1.691754
 20
-4.583552
 11
-0.174279
 21
-4.583552
  0
TEXT
  8
Layer0$C$L0
 10
-0.557566
 20
-5.413888
 40
0.125000
  1
1.94
 72
     5
 11
-9.099114E-02
 21
-5.413888
  0
ENDBLK
  8
Layer0$C$L0
  0
BLOCK
  8
Layer0$C$L0
  2
*D5
 70
     1
 10
0.000000
 20
0.000000
  0
SOLID
  8
Layer0$C$L0
 62
     0
 10
-0.848242
 20
-1.153003
 11
-0.787374
 21
-1.153003
 12
-0.817808
 22
-1.000000
 13
-0.817808
 23
-1.000000
  0
LINE
  8
Layer0$C$L0
 10
-0.817808
 20
-1.000000
 11
-0.817808
 21
-2.102397
  0
SOLID
  8
Layer0$C$L0
 62
     0
 10
-0.787374
 20
-3.721998
 11
-0.848242
 21
-3.721998
 12
-0.817808
 22
-3.875000
 13
-0.817808
 23
-3.875000
  0
LINE
  8
Layer0$C$L0
 10
-0.817808
 20
-3.875000
 11
-0.817808
 21
-2.352397
  0
LINE
  8
Layer0$C$L0
  6
GAP
 10
-1.710807
 20
-1.000000
 11
-0.667808
 21
-1.000000
  0
LINE
  8
Layer0$C$L0
  6
GAP
 10
-1.712122
 20
-3.875000
 11
-0.667808
 21
-3.875000
  0
TEXT
  8
Layer0$C$L0
 10
-1.051096
 20
-2.289897
 40
0.125000
  1
2.87
 72
     5
 11
-0.584520
 21
-2.289897
  0
ENDBLK
  8
Layer0$C$L0
  0
BLOCK
  8
Layer0$C$L0
  2
*D6
 70
     1
 10
0.000000
 20
0.000000
  0
SOLID
  8
Layer0$C$L0
 62
     0
 10
-1.346859
 20
-1.465002
 11
-1.285991
 21
-1.465002
 12
-1.316425
 22
-1.311999
 13
-1.316425
 23
-1.311999
  0
LINE
  8
Layer0$C$L0
 10
-1.316425
 20
-1.311999
 11
-1.316425
 21
-2.326266
  0
SOLID
  8
Layer0$C$L0
 62
     0
 10
-1.285991
 20
-3.408998
 11
-1.346860
 21
-3.408998
 12
-1.316425
 22
-3.562000
 13
-1.316425
 23
-3.562000
  0
LINE
  8
Layer0$C$L0
 10
-1.316425
 20
-3.562000
 11
-1.316425
 21
-2.576266
  0
LINE
  8
Layer0$C$L0
  6
GAP
 10
-2.024826
 20
-1.311999
 11
-1.166425
 21
-1.311999
  0
LINE
  8
Layer0$C$L0
  6
GAP
 10
-1.995510
 20
-3.562000
 11
-1.166425
 21
-3.562000
  0
TEXT
  8
Layer0$C$L0
 10
-1.549713
 20
-2.513766
 40
0.125000
  1
2.25
 72
     5
 11
-1.083138
 21
-2.513766
  0
ENDBLK
  8
Layer0$C$L0
  0
BLOCK
  8
Layer0$C$L0
  2
*D7
 70
     1
 10
0.000000
 20
0.000000
  0
SOLID
  8
Layer0$C$L0
 62
     0
 10
-1.346859
 20
-1.465002
 11
-1.285991
 21
-1.465002
 12
-1.316425
 22
-1.311999
 13
-1.316425
 23
-1.311999
  0
LINE
  8
Layer0$C$L0
 10
-1.316425
 20
-1.311999
 11
-1.316425
 21
-1.711999
  0
SOLID
  8
Layer0$C$L0
 62
     0
 10
-1.285991
 20
-0.846998
 11
-1.346859
 21
-0.846998
 12
-1.316425
 22
-1.000000
 13
-1.316425
 23
-1.000000
  0
LINE
  8
Layer0$C$L0
 10
-1.316425
 20
-1.000000
 11
-1.316425
 21
-0.600000
  0
TEXT
  8
Layer0$C$L0
  6
GAP
 10
-1.487213
 20
-1.187500
 40
0.125000
  1
.31
 72
     5
 11
-1.145638
 21
-1.187500
  0
ENDBLK
  8
Layer0$C$L0
  0
BLOCK
  8
Layer0$C$L0
  2
*D8
 70
     1
 10
0.000000
 20
0.000000
  0
SOLID
  8
Layer0$C$L0
 62
     0
 10
-2.133120
 20
-0.533064
 11
-2.133120
 21
-0.472196
 12
-2.286122
 22
-0.502630
 13
-2.286122
 23
-0.502630
  0
SOLID
  8
Layer0$C$L0
 62
     0
 10
-1.965125
 20
-0.472196
 11
-1.965125
 21
-0.533064
 12
-1.812122
 22
-0.502630
 13
-1.812122
 23
-0.502630
  0
LINE
  8
Layer0$C$L0
 10
-2.286122
 20
-0.502630
 11
-1.812122
 21
-0.502630
  0
LINE
  8
Layer0$C$L0
 10
-2.286122
 20
-0.502630
 11
-2.812763
 21
-0.502630
  0
LINE
  8
Layer0$C$L0
  6
GAP
 10
-2.286122
 20
-1.024762
 11
-2.286122
 21
-0.352630
  0
LINE
  8
Layer0$C$L0
  6
GAP
 10
-1.812122
 20
-0.900000
 11
-1.812122
 21
-0.352630
  0
TEXT
  8
Layer0$C$L0
 10
-3.341838
 20
-0.565130
 40
0.125000
  1
0.47
 72
     5
 11
-2.875263
 21
-0.565130
  0
ENDBLK
  8
Layer0$C$L0
  0
BLOCK
  8
Layer0$C$L0
  2
*X0
 70
     1
 10
0.000000
 20
0.000000
  0
LINE
  8
Layer0$C$L0
 10
-4.465036
 20
1.101342
 11
-4.456174
 21
1.110204
  0
LINE
  8
Layer0$C$L0
 10
-4.445858
 20
1.141734
 11
-4.496564
 21
1.091026
  0
LINE
  8
Layer0$C$L0
 10
-4.506448
 20
1.102355
 11
-4.517778
 21
1.091026
  0
LINE
  8
Layer0$C$L0
 10
-4.445858
 20
1.162946
 11
-4.487188
 21
1.121617
  0
LINE
  8
Layer0$C$L0
 10
-4.529142
 20
1.100875
 11
-4.538991
 21
1.091026
  0
LINE
  8
Layer0$C$L0
 10
-4.445858
 20
1.184160
 11
-4.485708
 21
1.144310
  0
LINE
  8
Layer0$C$L0
 10
-4.550355
 20
1.100875
 11
-4.560205
 21
1.091026
  0
LINE
  8
Layer0$C$L0
 10
-4.460456
 20
1.190774
 11
-4.486736
 21
1.164495
  0
LINE
  8
Layer0$C$L0
 10
-4.568008
 20
1.104434
 11
-4.581106
 21
1.091339
  0
LINE
  8
Layer0$C$L0
 10
-4.481668
 20
1.190774
 11
-4.496688
 21
1.175756
  0
LINE
  8
Layer0$C$L0
 10
-4.445835
 20
1.226610
 11
-4.456441
 21
1.216003
  0
LINE
  8
Layer0$C$L0
 10
-4.578947
 20
1.114710
 11
-4.596979
 21
1.096679
  0
LINE
  8
Layer0$C$L0
 10
-4.502882
 20
1.190774
 11
-4.515695
 21
1.177963
  0
LINE
  8
Layer0$C$L0
 10
-4.446043
 20
1.247614
 11
-4.477655
 21
1.216003
  0
LINE
  8
Layer0$C$L0
 10
-4.583850
 20
1.131019
 11
-4.609207
 21
1.105664
  0
LINE
  8
Layer0$C$L0
 10
-4.524095
 20
1.190774
 11
-4.530670
 21
1.184201
  0
LINE
  8
Layer0$C$L0
 10
-4.451227
 20
1.263644
 11
-4.485633
 21
1.229237
  0
LINE
  8
Layer0$C$L0
 10
-4.583850
 20
1.152233
 11
-4.618082
 21
1.118000
  0
LINE
  8
Layer0$C$L0
 10
-4.460109
 20
1.275975
 11
-4.485633
 21
1.250450
  0
LINE
  8
Layer0$C$L0
 10
-4.583850
 20
1.173445
 11
-4.623136
 21
1.134160
  0
LINE
  8
Layer0$C$L0
 10
-4.472221
 20
1.285075
 11
-4.490362
 21
1.266935
  0
LINE
  8
Layer0$C$L0
 10
-4.583850
 20
1.194659
 11
-4.623600
 21
1.154909
  0
LINE
  8
Layer0$C$L0
 10
-4.488332
 20
1.290177
 11
-4.501300
 21
1.277210
  0
LINE
  8
Layer0$C$L0
 10
-4.583850
 20
1.215872
 11
-4.623600
 21
1.176123
  0
LINE
  8
Layer0$C$L0
 10
-4.508995
 20
1.290728
 11
-4.518692
 21
1.281031
  0
LINE
  8
Layer0$C$L0
 10
-4.583850
 20
1.237085
 11
-4.623600
 21
1.197337
  0
LINE
  8
Layer0$C$L0
 10
-4.530208
 20
1.290728
 11
-4.539905
 21
1.281031
  0
LINE
  8
Layer0$C$L0
 10
-4.582122
 20
1.260027
 11
-4.623600
 21
1.218549
  0
LINE
  8
Layer0$C$L0
 10
-4.551422
 20
1.290728
 11
-4.562860
 21
1.279289
  0
LINE
  8
Layer0$C$L0
 10
-4.572635
 20
1.290728
 11
-4.623600
 21
1.239763
  0
LINE
  8
Layer0$C$L0
 10
-4.604272
 20
1.280303
 11
-4.613136
 21
1.271441
  0
ENDBLK
  8
Layer0$C$L0
  0
BLOCK
  8
Layer0$C$L0
  2
*X1
 70
     1
 10
0.000000
 20
0.000000
  0
LINE
  8
Layer0$C$L0
 10
-4.273023
 20
1.091120
 11
-4.227951
 21
1.136193
  0
LINE
  8
Layer0$C$L0
 10
-4.227609
 20
1.157749
 11
-4.294580
 21
1.090778
  0
LINE
  8
Layer0$C$L0
 10
-4.305591
 20
1.100981
 11
-4.315794
 21
1.090778
  0
LINE
  8
Layer0$C$L0
 10
-4.227609
 20
1.178962
 11
-4.267810
 21
1.138759
  0
LINE
  8
Layer0$C$L0
 10
-4.326803
 20
1.100981
 11
-4.337007
 21
1.090778
  0
LINE
  8
Layer0$C$L0
 10
-4.227609
 20
1.200175
 11
-4.267810
 21
1.159973
  0
LINE
  8
Layer0$C$L0
 10
-4.346269
 20
1.102729
 11
-4.357912
 21
1.091087
  0
LINE
  8
Layer0$C$L0
 10
-4.227609
 20
1.221388
 11
-4.267810
 21
1.181185
  0
LINE
  8
Layer0$C$L0
 10
-4.358665
 20
1.111546
 11
-4.375394
 21
1.094818
  0
LINE
  8
Layer0$C$L0
 10
-4.227746
 20
1.242463
 11
-4.267810
 21
1.202399
  0
LINE
  8
Layer0$C$L0
 10
-4.365289
 20
1.126134
 11
-4.388381
 21
1.103042
  0
LINE
  8
Layer0$C$L0
 10
-4.231533
 20
1.259890
 11
-4.267810
 21
1.223612
  0
LINE
  8
Layer0$C$L0
 10
-4.365602
 20
1.147035
 11
-4.398153
 21
1.114484
  0
LINE
  8
Layer0$C$L0
 10
-4.239507
 20
1.273129
 11
-4.267810
 21
1.244825
  0
LINE
  8
Layer0$C$L0
 10
-4.365602
 20
1.168248
 11
-4.404340
 21
1.129511
  0
LINE
  8
Layer0$C$L0
 10
-4.250837
 20
1.283014
 11
-4.270483
 21
1.263367
  0
LINE
  8
Layer0$C$L0
 10
-4.365602
 20
1.189461
 11
-4.405706
 21
1.149359
  0
LINE
  8
Layer0$C$L0
 10
-4.265731
 20
1.289332
 11
-4.279994
 21
1.275069
  0
LINE
  8
Layer0$C$L0
 10
-4.365602
 20
1.210674
 11
-4.405706
 21
1.170572
  0
LINE
  8
Layer0$C$L0
 10
-4.285442
 20
1.290834
 11
-4.295511
 21
1.280766
  0
LINE
  8
Layer0$C$L0
 10
-4.365602
 20
1.231887
 11
-4.405706
 21
1.191785
  0
LINE
  8
Layer0$C$L0
 10
-4.306657
 20
1.290834
 11
-4.316707
 21
1.280784
  0
LINE
  8
Layer0$C$L0
 10
-4.365797
 20
1.252907
 11
-4.405706
 21
1.212999
  0
LINE
  8
Layer0$C$L0
 10
-4.327869
 20
1.290834
 11
-4.337739
 21
1.280964
  0
LINE
  8
Layer0$C$L0
 10
-4.349082
 20
1.290834
 11
-4.405706
 21
1.234211
  0
LINE
  8
Layer0$C$L0
 10
-4.373939
 20
1.287191
 11
-4.402023
 21
1.259108
  0
ENDBLK
  8
Layer0$C$L0
  0
BLOCK
  8
Layer0$C$L0
  2
*X2
 70
     1
 10
0.000000
 20
0.000000
  0
LINE
  8
Layer0$C$L0
 10
-4.048709
 20
1.091990
 11
-4.010820
 21
1.129878
  0
LINE
  8
Layer0$C$L0
 10
-4.009714
 20
1.152197
 11
-4.071027
 21
1.090884
  0
LINE
  8
Layer0$C$L0
 10
-4.082391
 20
1.100733
 11
-4.092241
 21
1.090884
  0
LINE
  8
Layer0$C$L0
 10
-4.009714
 20
1.173411
 11
-4.049564
 21
1.133561
  0
LINE
  8
Layer0$C$L0
 10
-4.103605
 20
1.100733
 11
-4.113454
 21
1.090884
  0
LINE
  8
Layer0$C$L0
 10
-4.009714
 20
1.194624
 11
-4.049564
 21
1.154775
  0
LINE
  8
Layer0$C$L0
 10
-4.124101
 20
1.101449
 11
-4.134668
 21
1.090884
  0
LINE
  8
Layer0$C$L0
 10
-4.009714
 20
1.215837
 11
-4.049564
 21
1.175988
  0
LINE
  8
Layer0$C$L0
 10
-4.137985
 20
1.108778
 11
-4.153299
 21
1.093465
  0
LINE
  8
Layer0$C$L0
 10
-4.009714
 20
1.237050
 11
-4.049564
 21
1.197201
  0
LINE
  8
Layer0$C$L0
 10
-4.146305
 20
1.121672
 11
-4.167375
 21
1.100603
  0
LINE
  8
Layer0$C$L0
 10
-4.009714
 20
1.258264
 11
-4.049564
 21
1.218415
  0
LINE
  8
Layer0$C$L0
 10
-4.147707
 20
1.141484
 11
-4.177986
 21
1.111205
  0
LINE
  8
Layer0$C$L0
 10
-4.009714
 20
1.279477
 11
-4.049564
 21
1.239627
  0
LINE
  8
Layer0$C$L0
 10
-4.147707
 20
1.162696
 11
-4.185119
 21
1.125285
  0
LINE
  8
Layer0$C$L0
 10
-4.019567
 20
1.290838
 11
-4.049564
 21
1.260841
  0
LINE
  8
Layer0$C$L0
 10
-4.147707
 20
1.183910
 11
-4.187810
 21
1.143808
  0
LINE
  8
Layer0$C$L0
 10
-4.040781
 20
1.290838
 11
-4.049564
 21
1.282054
  0
LINE
  8
Layer0$C$L0
 10
-4.147707
 20
1.205123
 11
-4.187810
 21
1.165020
  0
LINE
  8
Layer0$C$L0
 10
-4.147707
 20
1.226336
 11
-4.187810
 21
1.186234
  0
LINE
  8
Layer0$C$L0
 10
-4.147707
 20
1.247549
 11
-4.187810
 21
1.207447
  0
LINE
  8
Layer0$C$L0
 10
-4.147707
 20
1.268763
 11
-4.187810
 21
1.228660
  0
LINE
  8
Layer0$C$L0
 10
-4.147707
 20
1.289976
 11
-4.187810
 21
1.249874
  0
LINE
  8
Layer0$C$L0
 10
-4.168117
 20
1.290780
 11
-4.187810
 21
1.271087
  0
ENDBLK
  8
Layer0$C$L0
  0
BLOCK
  8
Layer0$C$L0
  2
*X3
 70
     1
 10
0.000000
 20
0.000000
  0
LINE
  8
Layer0$C$L0
 10
-3.809394
 20
1.090887
 11
-3.799446
 21
1.100837
  0
LINE
  8
Layer0$C$L0
 10
-3.820657
 20
1.100837
 11
-3.830608
 21
1.090887
  0
LINE
  8
Layer0$C$L0
 10
-3.851821
 20
1.090887
 11
-3.841871
 21
1.100837
  0
LINE
  8
Layer0$C$L0
 10
-3.863084
 20
1.100837
 11
-3.873035
 21
1.090887
  0
LINE
  8
Layer0$C$L0
 10
-3.894247
 20
1.090887
 11
-3.884298
 21
1.100837
  0
LINE
  8
Layer0$C$L0
 10
-3.905511
 20
1.100837
 11
-3.915460
 21
1.090887
  0
LINE
  8
Layer0$C$L0
 10
-3.936674
 20
1.090887
 11
-3.926725
 21
1.100837
  0
LINE
  8
Layer0$C$L0
 10
-3.929611
 20
1.119165
 11
-3.957887
 21
1.090887
  0
LINE
  8
Layer0$C$L0
 10
-3.969812
 20
1.100175
 11
-3.929611
 21
1.140377
  0
LINE
  8
Layer0$C$L0
 10
-3.929611
 20
1.161591
 11
-3.969812
 21
1.121388
  0
LINE
  8
Layer0$C$L0
 10
-3.969812
 20
1.142601
 11
-3.929611
 21
1.182804
  0
LINE
  8
Layer0$C$L0
 10
-3.929611
 20
1.204017
 11
-3.969812
 21
1.163815
  0
LINE
  8
Layer0$C$L0
 10
-3.969812
 20
1.185027
 11
-3.929611
 21
1.225231
  0
LINE
  8
Layer0$C$L0
 10
-3.929611
 20
1.246444
 11
-3.969812
 21
1.206241
  0
LINE
  8
Layer0$C$L0
 10
-3.969812
 20
1.227455
 11
-3.929611
 21
1.267657
  0
LINE
  8
Layer0$C$L0
 10
-3.929611
 20
1.288870
 11
-3.969812
 21
1.248667
  0
LINE
  8
Layer0$C$L0
 10
-3.969812
 20
1.269881
 11
-3.948808
 21
1.290885
  0
ENDBLK
  8
Layer0$C$L0
  0
BLOCK
  8
Layer0$C$L0
  2
*X4
 70
     1
 10
0.000000
 20
0.000000
  0
LINE
  8
Layer0$C$L0
 10
-3.622785
 20
1.090821
 11
-3.573707
 21
1.139898
  0
LINE
  8
Layer0$C$L0
 10
-3.631633
 20
1.103185
 11
-3.644077
 21
1.090742
  0
LINE
  8
Layer0$C$L0
 10
-3.573572
 20
1.161248
 11
-3.616016
 21
1.118803
  0
LINE
  8
Layer0$C$L0
 10
-3.655088
 20
1.100944
 11
-3.665290
 21
1.090742
  0
LINE
  8
Layer0$C$L0
 10
-3.573572
 20
1.182461
 11
-3.613775
 21
1.142258
  0
LINE
  8
Layer0$C$L0
 10
-3.676301
 20
1.100944
 11
-3.686504
 21
1.090742
  0
LINE
  8
Layer0$C$L0
 10
-3.573572
 20
1.203674
 11
-3.613775
 21
1.163472
  0
LINE
  8
Layer0$C$L0
 10
-3.697515
 20
1.100944
 11
-3.707717
 21
1.090742
  0
LINE
  8
Layer0$C$L0
 10
-3.573572
 20
1.224887
 11
-3.613775
 21
1.184684
  0
LINE
  8
Layer0$C$L0
 10
-3.711715
 20
1.107956
 11
-3.728931
 21
1.090742
  0
LINE
  8
Layer0$C$L0
 10
-3.574008
 20
1.245662
 11
-3.613775
 21
1.205898
  0
LINE
  8
Layer0$C$L0
 10
-3.711715
 20
1.129170
 11
-3.750144
 21
1.090742
  0
LINE
  8
Layer0$C$L0
 10
-3.578592
 20
1.262292
 11
-3.613775
 21
1.227111
  0
LINE
  8
Layer0$C$L0
 10
-3.711715
 20
1.150382
 11
-3.751565
 21
1.110533
  0
LINE
  8
Layer0$C$L0
 10
-3.587127
 20
1.274972
 11
-3.613775
 21
1.248324
  0
LINE
  8
Layer0$C$L0
 10
-3.711715
 20
1.171596
 11
-3.751565
 21
1.131747
  0
LINE
  8
Layer0$C$L0
 10
-3.599020
 20
1.284292
 11
-3.617603
 21
1.265708
  0
LINE
  8
Layer0$C$L0
 10
-3.711715
 20
1.192809
 11
-3.751565
 21
1.152960
  0
LINE
  8
Layer0$C$L0
 10
-3.614437
 20
1.290089
 11
-3.628059
 21
1.276465
  0
LINE
  8
Layer0$C$L0
 10
-3.711715
 20
1.214022
 11
-3.751565
 21
1.174173
  0
LINE
  8
Layer0$C$L0
 10
-3.634941
 20
1.290797
 11
-3.644990
 21
1.280747
  0
LINE
  8
Layer0$C$L0
 10
-3.711715
 20
1.235236
 11
-3.751565
 21
1.195386
  0
LINE
  8
Layer0$C$L0
 10
-3.656154
 20
1.290797
 11
-3.666204
 21
1.280747
  0
LINE
  8
Layer0$C$L0
 10
-3.711715
 20
1.256448
 11
-3.751565
 21
1.216600
  0
LINE
  8
Layer0$C$L0
 10
-3.677368
 20
1.290797
 11
-3.687418
 21
1.280747
  0
LINE
  8
Layer0$C$L0
 10
-3.711715
 20
1.277662
 11
-3.751565
 21
1.237812
  0
LINE
  8
Layer0$C$L0
 10
-3.698581
 20
1.290797
 11
-3.708631
 21
1.280747
  0
LINE
  8
Layer0$C$L0
 10
-3.719793
 20
1.290797
 11
-3.751565
 21
1.259026
  0
LINE
  8
Layer0$C$L0
 10
-3.741006
 20
1.290797
 11
-3.751565
 21
1.280239
  0
ENDBLK
  8
Layer0$C$L0
  0
BLOCK
  8
Layer0$C$L0
  2
*X5
 70
     1
 10
0.000000
 20
0.000000
  0
LINE
  8
Layer0$C$L0
 10
-4.799345
 20
1.091867
 11
-4.800053
 21
1.091160
  0
LINE
  8
Layer0$C$L0
 10
-4.699345
 20
1.191867
 11
-4.700053
 21
1.191159
  0
LINE
  8
Layer0$C$L0
 10
-4.799345
 20
1.113080
 11
-4.821267
 21
1.091160
  0
LINE
  8
Layer0$C$L0
 10
-4.699345
 20
1.213081
 11
-4.721266
 21
1.191159
  0
LINE
  8
Layer0$C$L0
 10
-4.799345
 20
1.134294
 11
-4.842480
 21
1.091160
  0
LINE
  8
Layer0$C$L0
 10
-4.699345
 20
1.234293
 11
-4.742480
 21
1.191159
  0
LINE
  8
Layer0$C$L0
 10
-4.799345
 20
1.155506
 11
-4.863692
 21
1.091160
  0
LINE
  8
Layer0$C$L0
 10
-4.699345
 20
1.255507
 11
-4.763693
 21
1.191159
  0
LINE
  8
Layer0$C$L0
 10
-4.799345
 20
1.176720
 11
-4.884905
 21
1.091160
  0
LINE
  8
Layer0$C$L0
 10
-4.699345
 20
1.276719
 11
-4.784905
 21
1.191159
  0
LINE
  8
Layer0$C$L0
 10
-4.705914
 20
1.291365
 11
-4.906119
 21
1.091160
  0
LINE
  8
Layer0$C$L0
 10
-4.727128
 20
1.291365
 11
-4.775778
 21
1.242714
  0
LINE
  8
Layer0$C$L0
 10
-4.748341
 20
1.291365
 11
-4.785923
 21
1.253783
  0
LINE
  8
Layer0$C$L0
 10
-4.769555
 20
1.291365
 11
-4.796069
 21
1.264850
  0
LINE
  8
Layer0$C$L0
 10
-4.790766
 20
1.291365
 11
-4.806214
 21
1.275918
  0
LINE
  8
Layer0$C$L0
 10
-4.799401
 20
1.303944
 11
-4.816359
 21
1.286986
  0
LINE
  8
Layer0$C$L0
 10
-4.799401
 20
1.325156
 11
-4.826504
 21
1.298053
  0
LINE
  8
Layer0$C$L0
 10
-4.799401
 20
1.346370
 11
-4.836649
 21
1.309121
  0
LINE
  8
Layer0$C$L0
 10
-4.799401
 20
1.367584
 11
-4.846797
 21
1.320189
  0
LINE
  8
Layer0$C$L0
 10
-4.799401
 20
1.388796
 11
-4.856942
 21
1.331256
  0
LINE
  8
Layer0$C$L0
 10
-4.817990
 20
1.391420
 11
-4.867087
 21
1.342324
  0
LINE
  8
Layer0$C$L0
 10
-4.839203
 20
1.391420
 11
-4.877232
 21
1.353392
  0
LINE
  8
Layer0$C$L0
 10
-4.860417
 20
1.391420
 11
-4.887377
 21
1.364460
  0
LINE
  8
Layer0$C$L0
 10
-4.881630
 20
1.391420
 11
-4.897522
 21
1.375528
  0
LINE
  8
Layer0$C$L0
 10
-4.902844
 20
1.391420
 11
-4.907668
 21
1.386595
  0
ENDBLK
  8
Layer0$C$L0
  0
BLOCK
  8
Layer0$C$L0
  2
*X6
 70
     1
 10
0.000000
 20
0.000000
  0
LINE
  8
Layer0$C$L0
 10
-4.869452
 20
1.191466
 11
-4.849652
 21
1.211266
  0
LINE
  8
Layer0$C$L0
 10
-4.849652
 20
1.232479
 11
-4.890666
 21
1.191466
  0
LINE
  8
Layer0$C$L0
 10
-4.911877
 20
1.191466
 11
-4.849652
 21
1.253692
  0
LINE
  8
Layer0$C$L0
 10
-4.849652
 20
1.274905
 11
-4.933091
 21
1.191466
  0
LINE
  8
Layer0$C$L0
 10
-4.954304
 20
1.191466
 11
-4.854453
 21
1.291318
  0
LINE
  8
Layer0$C$L0
 10
-4.875666
 20
1.291318
 11
-4.975518
 21
1.191466
  0
LINE
  8
Layer0$C$L0
 10
-4.996731
 20
1.191466
 11
-4.896880
 21
1.291318
  0
LINE
  8
Layer0$C$L0
 10
-4.918093
 20
1.291318
 11
-5.011866
 21
1.197544
  0
LINE
  8
Layer0$C$L0
 10
-5.011866
 20
1.218758
 11
-4.939307
 21
1.291318
  0
LINE
  8
Layer0$C$L0
 10
-4.960520
 20
1.291318
 11
-5.011866
 21
1.239970
  0
LINE
  8
Layer0$C$L0
 10
-5.011866
 20
1.261184
 11
-4.981732
 21
1.291318
  0
LINE
  8
Layer0$C$L0
 10
-5.002945
 20
1.291318
 11
-5.011866
 21
1.282398
  0
ENDBLK
  8
Layer0$C$L0
  0
BLOCK
  8
Layer0$C$L0
  2
REV-LINESP
 70
     0
 10
0.000000
 20
0.000000
  0
POINT
  8
Layer0$C$L0
 10
0.000000
 20
0.000000
  0
LINE
  8
Layer0$C$L0
 10
0.000000
 20
-0.200000
 11
0.000000
 21
0.000000
  0
LINE
  8
Layer0$C$L0
 10
-0.375000
 20
-0.200000
 11
-0.375000
 21
0.000000
  0
LINE
  8
Layer0$C$L0
 10
-0.750000
 20
-0.200000
 11
-0.750000
 21
0.000000
  0
LINE
  8
Layer0$C$L0
 10
-3.000000
 20
-0.200000
 11
-3.000000
 21
0.000000
  0
LINE
  8
Layer0$C$L0
 10
-3.375000
 20
-0.200000
 11
-3.375000
 21
0.000000
  0
LINE
  8
Layer0$C$L0
 10
-4.000000
 20
-0.200000
 11
-4.000000
 21
0.000000
  0
LINE
  8
Layer0$C$L0
 10
-4.375000
 20
-0.200000
 11
-4.375000
 21
0.000000
  0
LINE
  8
Layer0$C$L0
 10
-4.375000
 20
-0.200000
 11
0.000000
 21
-0.200000
  0
ENDBLK
  8
Layer0$C$L0
  0
BLOCK
  8
Layer0$C$L0
  2
BP
 70
     0
 10
0.000000
 20
0.000000
  0
INSERT
  8
Layer0$C$L0
  2
NEWTITLE
 10
7.657000
 20
-4.906250
  0
INSERT
  8
Layer0$C$L0
  2
REV-HEADINGP
 10
7.657000
 20
4.906250
  0
POINT
  8
Layer0$C$L0
 10
7.657000
 20
4.906250
  0
INSERT
  8
Layer0$C$L0
 66
     1
  2
Cadra_attr_0
 10
0.000000
 20
0.000000
  0
ATTRIB
  8
Layer0$C$L0
 10
8.032000
 20
-5.281250
 40
0.156000
  1
HP7585  08.032  -05.281  00
  2
2
 70
    11
  0
SEQEND
  8
Layer0$C$L0
  0
INSERT
  8
Layer0$C$L0
 66
     1
  2
Cadra_attr_1
 10
0.000000
 20
0.000000
  0
ATTRIB
  8
Layer0$C$L0
 10
8.032000
 20
-4.936250
 40
0.156000
  1
HP7550  08.032  -04.936  00
  2
1
 70
    11
  0
SEQEND
  8
Layer0$C$L0
  0
INSERT
  8
Layer0$C$L0
 66
     1
  2
Cadra_attr_2
 10
0.000000
 20
0.000000
  0
ATTRIB
  8
Layer0$C$L0
 10
-7.718000
 20
5.218750
 40
0.156000
  1
HP7596  -07.718  05.219  180
  2
3
 70
    11
  0
SEQEND
  8
Layer0$C$L0
  0
LINE
  8
Layer0$C$L0
 10
-7.657001
 20
4.906250
 11
7.657000
 21
4.906250
  0
LINE
  8
Layer0$C$L0
 10
-7.657001
 20
4.906250
 11
-7.657001
 21
-4.906250
  0
LINE
  8
Layer0$C$L0
 10
7.654999
 20
-4.906250
 11
-7.657001
 21
-4.906250
  0
LINE
  8
Layer0$C$L0
 10
7.657000
 20
4.906250
 11
7.657000
 21
-4.906250
  0
ENDBLK
  8
Layer0$C$L0
  0
BLOCK
  8
Layer0$C$L0
  2
NEWTITLE
 70
     0
 10
0.000000
 20
0.000000
  0
INSERT
  8
Layer0$C$L0
  2
*X0
 10
0.000000
 20
0.000000
  0
INSERT
  8
Layer0$C$L0
  2
*X1
 10
0.000000
 20
0.000000
  0
INSERT
  8
Layer0$C$L0
  2
*X2
 10
0.000000
 20
0.000000
  0
INSERT
  8
Layer0$C$L0
  2
*X3
 10
0.000000
 20
0.000000
  0
INSERT
  8
Layer0$C$L0
  2
*X4
 10
0.000000
 20
0.000000
  0
INSERT
  8
Layer0$C$L0
  2
*X5
 10
0.000000
 20
0.000000
  0
INSERT
  8
Layer0$C$L0
  2
*X6
 10
0.000000
 20
0.000000
  0
TEXT
  8
Layer0$C$L0
 10
-2.370969
 20
1.281389
 40
4.687500E-02
  1
SPECIFIED: .XXXX%%p.0005;, .XXX%%p.005;, .XX%%p.01;,
 72
     5
 11
-0.227253
 21
1.281389
  0
TEXT
  8
Layer0$C$L0
 10
-2.370969
 20
1.211076
 40
4.687500E-02
  1
.X%%p.02;  X/X%%p1/32
 72
     5
 11
-1.586628
 21
1.211076
  0
TEXT
  8
Layer0$C$L0
 10
-4.979852
 20
0.252570
 40
4.687500E-02
  1
DESCRIPTION
 72
     5
 11
-4.476761
 21
0.252570
  0
TEXT
  8
Layer0$C$L0
 10
-4.979852
 20
0.568051
 40
4.687500E-02
  1
CHECKED BY:
 72
     5
 11
-4.476761
 21
0.568051
  0
TEXT
  8
Layer0$C$L0
 10
-4.979852
 20
0.901110
 40
4.687500E-02
  1
DRAWN BY:
 72
     5
 11
-4.570511
 21
0.901110
  0
TEXT
  8
Layer0$C$L0
 10
-1.871299
 20
0.252570
 40
4.687500E-02
  1
IDENTIFICATION NO. & REVISION
 72
     5
 11
-0.524459
 21
0.252570
  0
TEXT
  8
Layer0$C$L0
 10
-2.364801
 20
1.361413
 40
4.687500E-02
  1
TOLERANCE TO BE APPLIED UNLESS OTHERWISE
 72
     5
 11
-0.502335
 21
1.361413
  0
TEXT
  8
Layer0$C$L0
 10
-2.364801
 20
1.135219
 40
4.687500E-02
  1
UNSPECIFIED ANGLES%%p1%%d, SPECIFIED ANGLES%%pO%%d30'
 72
     5
 11
-0.267960
 21
1.135219
  0
TEXT
  8
Layer0$C$L0
 10
-2.364801
 20
1.052206
 40
4.687500E-02
  1
DIMENSIONS APPLY AFTER PLATING
 72
     5
 11
-0.971085
 21
1.052206
  0
TEXT
  8
Layer0$C$L0
 10
-2.364801
 20
0.943561
 40
4.687500E-02
  1
ALL SURFACES TO BE 125  UNLESS OTHERWISE SPECIFIED
 72
     5
 11
-3.358502E-02
 21
0.943561
  0
TEXT
  8
Layer0$C$L0
 10
-2.364801
 20
0.811332
 40
4.687500E-02
  1
BREAK ALL SHARP EDGES
 72
     5
 11
-1.392960
 21
0.811332
  0
TEXT
  8
Layer0$C$L0
 10
-2.444901
 20
0.381535
 40
6.300000E-02
  1
REFDOC:
 72
     5
 11
-2.020748
 21
0.381535
  0
TEXT
  8
Layer0$C$L0
 10
-2.364801
 20
0.736318
 40
4.687500E-02
  1
THIS DRAWING AND ALL INFORMATION THERE ON IS THE
 72
     5
 11
-0.127335
 21
0.736318
  0
TEXT
  8
Layer0$C$L0
 10
-2.364801
 20
0.666005
 40
4.687500E-02
  1
PROPERTY OF GOULD INC. AND IS SUBJECT TO RETURN ON
 72
     5
 11
-3.358502E-02
 21
0.666005
  0
TEXT
  8
Layer0$C$L0
 10
-2.364801
 20
0.595693
 40
4.687500E-02
  1
DEMAND.  THIS INFORMATION IS CONFIDENTIAL AND MUST
 72
     5
 11
-3.358502E-02
 21
0.595693
  0
TEXT
  8
Layer0$C$L0
 10
-2.364801
 20
0.525380
 40
4.687500E-02
  1
NOT BE MADE PUBLIC OR COPIED UNLESS AUTHORIZED.
 72
     5
 11
-0.174210
 21
0.525380
  0
TEXT
  8
Layer0$C$L0
 10
-3.135691
 20
0.907278
 40
4.687500E-02
  1
INIT. REL.
 72
     5
 11
-2.679475
 21
0.907278
  0
TEXT
  8
Layer0$C$L0
 10
-3.006168
 20
0.418541
 40
6.300000E-02
  1
NONE
 72
     5
 11
-2.771014
 21
0.418541
  0
TEXT
  8
Layer0$C$L0
 10
-3.111019
 20
0.574219
 40
4.687500E-02
  1
SCALE:
 72
     5
 11
-2.842304
 21
0.574219
  0
TEXT
  8
Layer0$C$L0
 10
-3.653783
 20
0.574219
 40
4.687500E-02
  1
DATE:
 72
     5
 11
-3.431942
 21
0.574219
  0
TEXT
  8
Layer0$C$L0
 10
-3.519015
 20
1.160825
 40
4.687500E-02
  1
P.O. BOX 729
 72
     5
 11
-2.969049
 21
1.160825
  0
TEXT
  8
Layer0$C$L0
 10
-3.515032
 20
1.089139
 40
4.687500E-02
  1
MARBLE FALLS, TX 78654
 72
     5
 11
-2.496317
 21
1.089139
  0
TEXT
  8
Layer0$C$L0
 10
-3.659951
 20
0.901110
 40
4.687500E-02
  1
DATE:
 72
     5
 11
-3.438110
 21
0.901110
  0
TEXT
  8
Layer0$C$L0
 10
-3.522998
 20
1.232512
 40
4.687500E-02
  1
GOULD INC.
 72
     5
 11
-3.066782
 21
1.232512
  0
TEXT
  8
Layer0$C$L0
 10
-5.004523
 20
0.999400
 40
6.000000E-02
  1
CIRCUIT PROTECTION DIV.
 72
     5
 11
-3.640567
 21
0.999400
  0
POINT
  8
Layer0$C$L0
 10
-1.988487
 20
0.413035
  0
LINE
  8
Layer0$C$L0
 10
-5.041019
 20
0.650082
 11
-2.475740
 21
0.650082
  0
LINE
  8
Layer0$C$L0
 10
-2.475740
 20
0.493216
 11
-4.263256E-14
 21
0.493216
  0
LINE
  8
Layer0$C$L0
 10
-5.041019
 20
1.436883
 11
-5.684342E-14
 21
1.436883
  0
LINE
  8
Layer0$C$L0
 10
-1.902138
 20
0.000000
 11
-1.902138
 21
0.326275
  0
LINE
  8
Layer0$C$L0
 10
-5.041019
 20
0.326275
 11
-5.684342E-14
 21
0.326275
  0
LINE
  8
Layer0$C$L0
 10
-3.141859
 20
0.326275
 11
-3.141859
 21
0.973890
  0
LINE
  8
Layer0$C$L0
 10
-2.475740
 20
0.326275
 11
-2.475740
 21
1.436883
  0
LINE
  8
Layer0$C$L0
 10
-5.041019
 20
0.973890
 11
-2.475740
 21
0.973890
  0
LINE
  8
Layer0$C$L0
 10
-5.041019
 20
0.000000
 11
-5.041019
 21
1.436883
  0
LINE
  8
Layer0$C$L0
 10
-5.012015
 20
1.291330
 11
-4.849514
 21
1.291330
  0
LINE
  8
Layer0$C$L0
 10
-4.849514
 20
1.291330
 11
-4.849514
 21
1.191329
  0
LINE
  8
Layer0$C$L0
 10
-4.849514
 20
1.191329
 11
-5.012015
 21
1.191329
  0
LINE
  8
Layer0$C$L0
 10
-5.012015
 20
1.191329
 11
-5.012015
 21
1.291330
  0
LINE
  8
Layer0$C$L0
 10
-4.912014
 20
1.391329
 11
-4.774516
 21
1.241329
  0
LINE
  8
Layer0$C$L0
 10
-4.774516
 20
1.241329
 11
-4.912014
 21
1.091330
  0
LINE
  8
Layer0$C$L0
 10
-4.912014
 20
1.091330
 11
-4.799515
 21
1.091330
  0
LINE
  8
Layer0$C$L0
 10
-4.799515
 20
1.091330
 11
-4.799515
 21
1.191329
  0
LINE
  8
Layer0$C$L0
 10
-4.799515
 20
1.191329
 11
-4.699515
 21
1.191329
  0
LINE
  8
Layer0$C$L0
 10
-4.699515
 20
1.191329
 11
-4.699515
 21
1.291330
  0
LINE
  8
Layer0$C$L0
 10
-4.699515
 20
1.291330
 11
-4.799515
 21
1.291330
  0
LINE
  8
Layer0$C$L0
 10
-4.799515
 20
1.291330
 11
-4.799515
 21
1.391329
  0
LINE
  8
Layer0$C$L0
 10
-4.799515
 20
1.391329
 11
-4.912014
 21
1.391329
  0
LINE
  8
Layer0$C$L0
 10
-3.791704
 20
1.100873
 11
-3.791704
 21
1.090874
  0
LINE
  8
Layer0$C$L0
 10
-3.969703
 20
1.290874
 11
-3.929704
 21
1.290874
  0
LINE
  8
Layer0$C$L0
 10
-4.049703
 20
1.290874
 11
-4.009704
 21
1.290874
  0
LINE
  8
Layer0$C$L0
 10
-4.187704
 20
1.290874
 11
-4.147705
 21
1.290874
  0
LINE
  8
Layer0$C$L0
 10
-3.573703
 20
1.140873
 11
-3.573703
 21
1.240874
  0
LINE
  8
Layer0$C$L0
 10
-3.751705
 20
1.090874
 11
-3.751705
 21
1.290874
  0
LINE
  8
Layer0$C$L0
 10
-3.613704
 20
1.130874
 11
-3.613704
 21
1.250874
  0
LINE
  8
Layer0$C$L0
 10
-3.711704
 20
1.100873
 11
-3.711704
 21
1.280874
  0
LINE
  8
Layer0$C$L0
 10
-3.751705
 20
1.090874
 11
-3.623704
 21
1.090874
  0
LINE
  8
Layer0$C$L0
 10
-3.751705
 20
1.290874
 11
-3.623704
 21
1.290874
  0
LINE
  8
Layer0$C$L0
 10
-3.711704
 20
1.100873
 11
-3.643703
 21
1.100873
  0
LINE
  8
Layer0$C$L0
 10
-3.711704
 20
1.280874
 11
-3.643703
 21
1.280874
  0
ARC
  8
Layer0$C$L0
 10
-3.623704
 20
1.140873
 40
5.000000E-02
 50
270.000001
 51
360.000010
  0
ARC
  8
Layer0$C$L0
 10
-3.623704
 20
1.240874
 40
5.000000E-02
 50
0.000000
 51
90.000003
  0
ARC
  8
Layer0$C$L0
 10
-3.643703
 20
1.130874
 40
3.000000E-02
 50
270.000001
 51
360.000010
  0
ARC
  8
Layer0$C$L0
 10
-3.643703
 20
1.250874
 40
3.000000E-02
 50
1.001791E-05
 51
89.999989
  0
LINE
  8
Layer0$C$L0
 10
-3.969703
 20
1.090874
 11
-3.969703
 21
1.290874
  0
LINE
  8
Layer0$C$L0
 10
-3.929704
 20
1.100873
 11
-3.929704
 21
1.290874
  0
LINE
  8
Layer0$C$L0
 10
-3.969703
 20
1.090874
 11
-3.791704
 21
1.090874
  0
LINE
  8
Layer0$C$L0
 10
-3.929704
 20
1.100873
 11
-3.791704
 21
1.100873
  0
LINE
  8
Layer0$C$L0
 10
-4.227705
 20
1.140873
 11
-4.227705
 21
1.240874
  0
LINE
  8
Layer0$C$L0
 10
-4.405706
 20
1.140873
 11
-4.405706
 21
1.240874
  0
LINE
  8
Layer0$C$L0
 10
-4.267704
 20
1.130874
 11
-4.267704
 21
1.250874
  0
LINE
  8
Layer0$C$L0
 10
-4.365705
 20
1.130874
 11
-4.365705
 21
1.250874
  0
LINE
  8
Layer0$C$L0
 10
-4.355705
 20
1.090874
 11
-4.277704
 21
1.090874
  0
LINE
  8
Layer0$C$L0
 10
-4.355705
 20
1.290874
 11
-4.277704
 21
1.290874
  0
LINE
  8
Layer0$C$L0
 10
-4.335706
 20
1.100873
 11
-4.297704
 21
1.100873
  0
LINE
  8
Layer0$C$L0
 10
-4.335706
 20
1.280874
 11
-4.297704
 21
1.280874
  0
ARC
  8
Layer0$C$L0
 10
-4.355705
 20
1.140873
 40
5.000000E-02
 50
180.000005
 51
270.000001
  0
ARC
  8
Layer0$C$L0
 10
-4.277704
 20
1.140873
 40
5.000000E-02
 50
270.000001
 51
360.000010
  0
ARC
  8
Layer0$C$L0
 10
-4.277704
 20
1.240874
 40
5.000000E-02
 50
0.000000
 51
90.000003
  0
ARC
  8
Layer0$C$L0
 10
-4.355705
 20
1.240874
 40
5.000000E-02
 50
90.000003
 51
180.000005
  0
ARC
  8
Layer0$C$L0
 10
-4.335706
 20
1.130874
 40
3.000000E-02
 50
180.000005
 51
270.000001
  0
ARC
  8
Layer0$C$L0
 10
-4.297704
 20
1.130874
 40
3.000000E-02
 50
270.000001
 51
360.000010
  0
ARC
  8
Layer0$C$L0
 10
-4.297704
 20
1.250874
 40
3.000000E-02
 50
1.001791E-05
 51
89.999989
  0
ARC
  8
Layer0$C$L0
 10
-4.335706
 20
1.250874
 40
3.000000E-02
 50
90.000003
 51
180.000005
  0
ARC
  8
Layer0$C$L0
 10
-4.505706
 20
1.157874
 40
2.000000E-02
 50
0.000000
 51
90.000003
  0
LINE
  8
Layer0$C$L0
 10
-4.445705
 20
1.140873
 11
-4.445705
 21
1.190874
  0
LINE
  8
Layer0$C$L0
 10
-4.485706
 20
1.130874
 11
-4.485706
 21
1.157874
  0
LINE
  8
Layer0$C$L0
 10
-4.485706
 20
1.215874
 11
-4.445705
 21
1.215874
  0
LINE
  8
Layer0$C$L0
 10
-4.445705
 20
1.215874
 11
-4.445705
 21
1.240874
  0
LINE
  8
Layer0$C$L0
 10
-4.623706
 20
1.140873
 11
-4.623706
 21
1.240874
  0
LINE
  8
Layer0$C$L0
 10
-4.485706
 20
1.215874
 11
-4.485706
 21
1.250874
  0
LINE
  8
Layer0$C$L0
 10
-4.583705
 20
1.130874
 11
-4.583705
 21
1.250874
  0
LINE
  8
Layer0$C$L0
 10
-4.573705
 20
1.090874
 11
-4.495706
 21
1.090874
  0
LINE
  8
Layer0$C$L0
 10
-4.573705
 20
1.290874
 11
-4.495706
 21
1.290874
  0
LINE
  8
Layer0$C$L0
 10
-4.553707
 20
1.100873
 11
-4.515705
 21
1.100873
  0
LINE
  8
Layer0$C$L0
 10
-4.553707
 20
1.280874
 11
-4.515705
 21
1.280874
  0
ARC
  8
Layer0$C$L0
 10
-4.573705
 20
1.140873
 40
5.000000E-02
 50
180.000005
 51
270.000001
  0
ARC
  8
Layer0$C$L0
 10
-4.495706
 20
1.140873
 40
5.000000E-02
 50
270.000001
 51
360.000010
  0
ARC
  8
Layer0$C$L0
 10
-4.495706
 20
1.240874
 40
5.000000E-02
 50
0.000000
 51
90.000003
  0
ARC
  8
Layer0$C$L0
 10
-4.573705
 20
1.240874
 40
5.000000E-02
 50
90.000003
 51
180.000005
  0
ARC
  8
Layer0$C$L0
 10
-4.553707
 20
1.130874
 40
3.000000E-02
 50
180.000005
 51
270.000001
  0
ARC
  8
Layer0$C$L0
 10
-4.515705
 20
1.130874
 40
3.000000E-02
 50
270.000001
 51
360.000010
  0
ARC
  8
Layer0$C$L0
 10
-4.515705
 20
1.250874
 40
3.000000E-02
 50
1.001791E-05
 51
89.999989
  0
ARC
  8
Layer0$C$L0
 10
-4.553707
 20
1.250874
 40
3.000000E-02
 50
90.000003
 51
180.000005
  0
ARC
  8
Layer0$C$L0
 10
-4.079704
 20
1.130874
 40
3.000000E-02
 50
270.000001
 51
360.000010
  0
ARC
  8
Layer0$C$L0
 10
-4.117704
 20
1.130874
 40
3.000000E-02
 50
180.000005
 51
270.000001
  0
ARC
  8
Layer0$C$L0
 10
-4.059703
 20
1.140873
 40
5.000000E-02
 50
270.000001
 51
360.000010
  0
ARC
  8
Layer0$C$L0
 10
-4.137704
 20
1.140873
 40
5.000000E-02
 50
180.000005
 51
270.000001
  0
LINE
  8
Layer0$C$L0
 10
-4.117704
 20
1.100873
 11
-4.079704
 21
1.100873
  0
LINE
  8
Layer0$C$L0
 10
-4.137704
 20
1.090874
 11
-4.059703
 21
1.090874
  0
LINE
  8
Layer0$C$L0
 10
-4.147705
 20
1.130874
 11
-4.147705
 21
1.290874
  0
LINE
  8
Layer0$C$L0
 10
-4.049703
 20
1.130874
 11
-4.049703
 21
1.290874
  0
LINE
  8
Layer0$C$L0
 10
-4.187704
 20
1.140873
 11
-4.187704
 21
1.290874
  0
LINE
  8
Layer0$C$L0
 10
-4.009704
 20
1.140873
 11
-4.009704
 21
1.290874
  0
LINE
  8
Layer0$C$L0
 10
-4.530706
 20
1.177874
 11
-4.530706
 21
1.190874
  0
LINE
  8
Layer0$C$L0
 10
-4.530706
 20
1.177874
 11
-4.505706
 21
1.177874
  0
LINE
  8
Layer0$C$L0
 10
-4.530706
 20
1.190874
 11
-4.445705
 21
1.190874
  0
LINE
  8
Layer0$C$L0
 10
-1.368988
 20
0.887476
 11
-1.396059
 21
0.934364
  0
LINE
  8
Layer0$C$L0
 10
-1.368988
 20
0.887476
 11
-1.291639
 21
1.021448
  0
ENDBLK
  8
Layer0$C$L0
  0
BLOCK
  8
Layer0$C$L0
  2
REV-HEADINGP
 70
     0
 10
0.000000
 20
0.000000
  0
TEXT
  8
Layer0$C$L0
 10
-0.271321
 20
-0.141521
 40
6.250000E-02
  1
CK
 72
     5
 11
-0.163033
 21
-0.141521
  0
TEXT
  8
Layer0$C$L0
 10
-0.641315
 20
-0.141704
 40
6.250000E-02
  1
BY
 72
     5
 11
-0.533027
 21
-0.141704
  0
TEXT
  8
Layer0$C$L0
 10
-2.220139
 20
-0.141521
 40
6.250000E-02
  1
DESCRIPTION
 72
     5
 11
-1.549351
 21
-0.141521
  0
TEXT
  8
Layer0$C$L0
 10
-3.281666
 20
-0.141521
 40
6.250000E-02
  1
ECO
 72
     5
 11
-3.110879
 21
-0.141521
  0
TEXT
  8
Layer0$C$L0
 10
-3.814410
 20
-0.141521
 40
6.250000E-02
  1
DATE
 72
     5
 11
-3.581123
 21
-0.141521
  0
TEXT
  8
Layer0$C$L0
 10
-4.289352
 20
-0.141521
 40
6.250000E-02
  1
REV
 72
     5
 11
-4.118564
 21
-0.141521
  0
LINE
  8
Layer0$C$L0
 10
0.000000
 20
-0.200000
 11
0.000000
 21
0.000000
  0
LINE
  8
Layer0$C$L0
 10
-0.375000
 20
-0.200000
 11
-0.375000
 21
0.000000
  0
LINE
  8
Layer0$C$L0
 10
-0.750000
 20
-0.200000
 11
-0.750000
 21
0.000000
  0
LINE
  8
Layer0$C$L0
 10
-3.000000
 20
-0.200000
 11
-3.000000
 21
0.000000
  0
LINE
  8
Layer0$C$L0
 10
-3.375000
 20
-0.200000
 11
-3.375000
 21
0.000000
  0
LINE
  8
Layer0$C$L0
 10
-4.000000
 20
-0.200000
 11
-4.000000
 21
0.000000
  0
LINE
  8
Layer0$C$L0
 10
-4.375000
 20
-0.200000
 11
-4.375000
 21
0.000000
  0
LINE
  8
Layer0$C$L0
 10
-4.375000
 20
-0.200000
 11
0.000000
 21
-0.200000
  0
ENDBLK
  8
Layer0$C$L0
  0
BLOCK
  8
Layer0$C$L0
  2
Cadra_attr_0
 70
     2
 10
0.000000
 20
0.000000
  0
POINT
  8
Layer0$C$L0
 10
8.032000
 20
-5.281250
  0
ATTDEF
  8
Layer0$C$L0
 10
8.032000
 20
-5.281250
 40
0.156000
  1
HP7585  08.032  -05.281  00
  3

  2
2
 70
    11
  0
ENDBLK
  8
Layer0$C$L0
  0
BLOCK
  8
Layer0$C$L0
  2
Cadra_attr_1
 70
     2
 10
0.000000
 20
0.000000
  0
POINT
  8
Layer0$C$L0
 10
8.032000
 20
-4.936250
  0
ATTDEF
  8
Layer0$C$L0
 10
8.032000
 20
-4.936250
 40
0.156000
  1
HP7550  08.032  -04.936  00
  3

  2
1
 70
    11
  0
ENDBLK
  8
Layer0$C$L0
  0
BLOCK
  8
Layer0$C$L0
  2
Cadra_attr_2
 70
     2
 10
0.000000
 20
0.000000
  0
POINT
  8
Layer0$C$L0
 10
-7.718000
 20
5.218750
  0
ATTDEF
  8
Layer0$C$L0
 10
-7.718000
 20
5.218750
 40
0.156000
  1
HP7596  -07.718  05.219  180
  3

  2
3
 70
    11
  0
ENDBLK
  8
Layer0$C$L0
  0
ENDSEC
  0
SECTION
  2
ENTITIES
  0
TEXT
  8
Layer0$C$L0
 10
10.531397
 20
-0.202784
 40
0.125000
  1
GO
 72
     5
 11
10.747972
 21
-0.202784
  0
TEXT
  8
Layer0$C$L0
 10
10.153672
 20
-0.194312
 40
0.125000
  1
BM
 72
     5
 11
10.370248
 21
-0.194312
  0
TEXT
  8
Layer0$C$L0
 10
6.906397
 20
-0.202784
 40
0.125000
  1
4/92
 72
     5
 11
7.372972
 21
-0.202784
  0
TEXT
  8
Layer0$C$L0
 10
7.518048
 20
-0.202248
 40
0.125000
  1
92-050
 41
0.434393
 72
     5
 11
7.789543
 21
-0.202248
  0
TEXT
  8
Layer0$C$L0
 10
9.081447
 20
-9.603740
 40
0.125000
  1
05B0388
 72
     5
 11
9.923022
 21
-9.603740
  0
TEXT
  8
Layer0$C$L0
 10
6.198831
 20
-9.259118
 40
0.125000
  1
GO
 72
     5
 11
6.415406
 21
-9.259118
  0
TEXT
  8
Layer0$C$L0
 10
6.528260
 20
-0.202800
 40
0.125000
  1
00
 72
     5
 11
6.744835
 21
-0.202800
  0
TEXT
  8
Layer0$C$L0
 10
7.905817
 20
-0.197126
 40
0.125000
  1
RELEASED
 72
     5
 11
8.872392
 21
-0.197126
  0
TEXT
  8
Layer0$C$L0
 10
8.216424
 20
-8.067768
 40
0.125000
  1
P/N 63130 (CU-AL)
 72
     5
 11
10.307999
 21
-8.067768
  0
DIMENSION
  8
Layer0$C$L0
  2
*D0
 10
3.690836
 20
-5.444731
 11
3.690836
 21
-5.834383
 13
3.187575
 23
-6.442731
 14
2.840092
 24
-5.444731
 50
90.000000
  3
DIM0
  0
DIMENSION
  8
Layer0$C$L0
  2
*D1
 10
-1.810807
 20
-1.462127E-02
 11
-3.069316
 21
-1.462126E-02
 13
-2.632122
 23
-1.040323
 14
-1.810807
 24
-1.000000
  3
DIM0
  0
CIRCLE
  8
Layer0$C$L0
 10
-2.286122
 20
-2.410555
 40
0.155000
  0
LINE
  8
Layer0$C$L0
 10
-2.615120
 20
-5.712731
 11
-2.615120
 21
-4.866552
  0
POLYLINE
  8
Layer0$C$L0
 66
     1
  0
VERTEX
  8
Layer0$C$L0
 10
-2.234359
 20
-1.210058
  0
VERTEX
  8
Layer0$C$L0
 10
-1.334588
 20
-0.142741
  0
VERTEX
  8
Layer0$C$L0
 10
-1.209588
 20
-0.142741
  0
SEQEND
  8
Layer0$C$L0
  0
SOLID
  8
Layer0$C$L0
 62
     0
 10
-2.112473
 20
-1.112694
 11
-2.159011
 21
-1.073461
 12
-2.234359
 22
-1.210058
 13
-2.234359
 23
-1.210058
  0
TEXT
  8
Layer0$C$L0
 10
-1.147088
 20
-0.205241
 40
0.125000
  1
.20 %%c X.125 
 72
     5
 11
0.351988
 21
-0.205241
  0
TEXT
  8
Layer0$C$L0
 10
-1.380838
 20
-0.392741
 40
0.125000
  1
  DP. TYP 2 PLCS
 72
     5
 11
0.585738
 21
-0.392741
  0
POLYLINE
  8
Layer0$C$L0
 66
     1
  0
VERTEX
  8
Layer0$C$L0
 10
-2.433503
 20
-2.026464
  0
VERTEX
  8
Layer0$C$L0
 10
-3.144415
 20
-2.541651
  0
VERTEX
  8
Layer0$C$L0
 10
-3.269415
 20
-2.541651
  0
SEQEND
  8
Layer0$C$L0
  0
SOLID
  8
Layer0$C$L0
 62
     0
 10
-2.575253
 20
-2.091603
 11
-2.539535
 21
-2.140890
 12
-2.433503
 22
-2.026464
 13
-2.433503
 23
-2.026464
  0
POLYLINE
  8
Layer0$C$L0
 66
     1
 70
     1
  0
VERTEX
  8
Layer0$C$L0
 10
-3.485990
 20
-2.416651
  0
VERTEX
  8
Layer0$C$L0
 10
-3.269415
 20
-2.416651
  0
VERTEX
  8
Layer0$C$L0
 10
-3.269415
 20
-2.666651
  0
VERTEX
  8
Layer0$C$L0
 10
-3.485990
 20
-2.666651
  0
SEQEND
  8
Layer0$C$L0
  0
TEXT
  8
Layer0$C$L0
 10
-3.423490
 20
-2.604151
 40
0.125000
  1
2
 72
     5
 11
-3.331915
 21
-2.604151
  0
TEXT
  8
Layer0$C$L0
 10
-3.877136
 20
-9.516515
 40
0.125000
  1
NOTES:
 72
     5
 11
-3.160560
 21
-9.516515
  0
TEXT
  8
Layer0$C$L0
 10
-3.688831
 20
-7.490356
 40
0.125000
  1
3.
 72
     5
 11
-3.472256
 21
-7.490356
  0
TEXT
  8
Layer0$C$L0
 10
-3.297157
 20
-7.482824
 40
0.125000
  1
(1)2/0-#14 X (4)#4-14 ADDER, 600V
 72
     5
 11
0.794418
 21
-7.482824
  0
LINE
  8
Layer0$C$L0
 10
-2.022243
 20
-5.712731
 11
-2.635576
 21
-5.712731
  0
DIMENSION
  8
Layer0$C$L0
  2
*D2
 10
-0.859220
 20
-5.291552
 11
-0.859220
 21
-5.885858
 13
-1.785021
 23
-6.521552
 14
-2.114744
 24
-5.291552
 50
90.000000
  3
DIM0
  0
DIMENSION
  8
Layer0$C$L0
  2
*D3
 10
-1.342338
 20
-5.636552
 11
-1.342338
 21
-6.160606
 13
-1.785021
 23
-6.521552
 14
-2.103482
 24
-5.636552
 50
-90.000000
  3
DIM0
  0
DIMENSION
  8
Layer0$C$L0
  2
*D4
 10
-0.324279
 20
-4.583552
 11
-0.324279
 21
-5.351388
 13
-1.812603
 23
-6.521552
 14
-1.791754
 24
-4.583552
 50
89.999995
  3
DIM0
  0
DIMENSION
  8
Layer0$C$L0
  2
*D5
 10
-0.817808
 20
-3.875000
 11
-0.817808
 21
-2.227397
 13
-1.810807
 23
-1.000000
 14
-1.812122
 24
-3.875000
 50
89.999997
  3
DIM0
  0
DIMENSION
  8
Layer0$C$L0
  2
*D6
 10
-1.316425
 20
-3.562000
 11
-1.316425
 21
-2.451266
 13
-2.124826
 23
-1.311999
 14
-2.095510
 24
-3.562000
 50
-90.000000
  3
DIM0
  0
DIMENSION
  8
Layer0$C$L0
  2
*D7
 10
-1.316425
 20
-1.000000
 11
-1.316425
 21
-1.125000
 13
-2.124826
 23
-1.311999
 14
-1.810807
 24
-1.000000
 50
-90.000000
  3
DIM0
  0
LINE
  8
Layer0$C$L0
 10
-2.677122
 20
-2.223555
 11
-2.677122
 21
-2.597555
  0
LINE
  8
Layer0$C$L0
 10
-2.632122
 20
-2.597555
 11
-2.677122
 21
-2.597555
  0
LINE
  8
Layer0$C$L0
 10
-2.632122
 20
-2.223555
 11
-2.677122
 21
-2.223555
  0
DIMENSION
  8
Layer0$C$L0
  2
*D8
 10
-1.812122
 20
-0.502630
 11
-3.108550
 21
-0.502630
 13
-2.286122
 23
-1.124762
 14
-1.812122
 24
-1.000000
 50
7.204843E-06
  3
DIM0
  0
TEXT
  8
Layer0$C$L0
 10
8.222758
 20
-7.808077
 40
0.125000
  1
P/N 62130 (CU ONLY)
 72
     5
 11
10.564334
 21
-7.808077
  0
TEXT
  8
Layer0$C$L0
 10
5.942543
 20
-9.606914
 40
0.125000
  1
PDB
 72
     5
 11
6.284118
 21
-9.606914
  0
TEXT
  8
Layer0$C$L0
 10
7.069983
 20
-8.941851
 40
0.125000
  1
4/92
 72
     5
 11
7.536558
 21
-8.941851
  0
TEXT
  8
Layer0$C$L0
 10
6.202234
 20
-8.941851
 40
0.125000
  1
KDS
 72
     5
 11
6.543809
 21
-8.941851
  0
TEXT
  8
Layer0$C$L0
 10
-1.673078
 20
-9.299032
 40
0.125000
  1
ALLOY-TIN PLATED.
 72
     5
 11
0.418497
 21
-9.299032
  0
TEXT
  8
Layer0$C$L0
 10
-3.237483
 20
-9.070890
 40
0.125000
  1
CONNECTOR-ALUMINUM OR COPPER
 72
     5
 11
0.229092
 21
-9.070890
  0
TEXT
  8
Layer0$C$L0
 10
-3.229335
 20
-8.810156
 40
0.125000
  1
BASE-THERMOPLASTIC-125%%dC RTI
 72
     5
 11
0.237241
 21
-8.810156
  0
TEXT
  8
Layer0$C$L0
 10
-3.685620
 20
-8.524978
 40
0.125000
  1
1. MATL COMPOSITION AND RATING:
 72
     5
 11
0.155956
 21
-8.524978
  0
TEXT
  8
Layer0$C$L0
 10
-3.328756
 20
-8.124376
 40
0.125000
  1
P/N 63130 USES HEX SET SCREW.
 72
     5
 11
0.262819
 21
-8.124376
  0
TEXT
  8
Layer0$C$L0
 10
-3.696053
 20
-7.863315
 40
0.125000
  1
2  P/N 62130 USES SLOTTED SET SCREW
 72
     5
 11
0.645522
 21
-7.863315
  0
POLYLINE
  8
Layer0$C$L0
 66
     1
 70
     1
  0
VERTEX
  8
Layer0$C$L0
 10
-3.758553
 20
-7.675815
  0
VERTEX
  8
Layer0$C$L0
 10
-3.541978
 20
-7.675815
  0
VERTEX
  8
Layer0$C$L0
 10
-3.541978
 20
-7.925815
  0
VERTEX
  8
Layer0$C$L0
 10
-3.758553
 20
-7.925815
  0
SEQEND
  8
Layer0$C$L0
  0
LINE
  8
Layer0$C$L0
 10
-2.697122
 20
-1.940999
 11
-2.697122
 21
-1.440999
  0
LINE
  8
Layer0$C$L0
 10
-2.697122
 20
-3.433000
 11
-2.632122
 21
-3.368000
  0
LINE
  8
Layer0$C$L0
 10
-2.697122
 20
-1.940999
 11
-2.632122
 21
-1.875999
  0
LINE
  8
Layer0$C$L0
 10
-2.697122
 20
-2.933000
 11
-2.632122
 21
-2.998000
  0
LINE
  8
Layer0$C$L0
 10
-2.697122
 20
-1.440999
 11
-2.632122
 21
-1.505999
  0
LINE
  8
Layer0$C$L0
 10
-2.697122
 20
-3.433000
 11
-2.697122
 21
-2.933000
  0
LINE
  8
Layer0$C$L0
 10
-2.635576
 20
-5.712731
 11
-2.635576
 21
-6.521552
  0
LINE
  8
Layer0$C$L0
 10
-2.700575
 20
-5.724731
 11
-2.700575
 21
-6.521876
  0
LINE
  8
Layer0$C$L0
 10
-2.635576
 20
-5.724731
 11
-2.700575
 21
-5.724731
  0
LINE
  8
Layer0$C$L0
 10
-2.700575
 20
-6.521876
 11
-1.812603
 21
-6.521876
  0
LINE
  8
Layer0$C$L0
 10
3.080388
 20
-5.846731
 11
3.122575
 21
-5.846731
  0
LINE
  8
Layer0$C$L0
 10
3.063940
 20
-6.317731
 11
3.080388
 21
-5.846731
  0
LINE
  8
Layer0$C$L0
 10
3.122575
 20
-6.442731
 11
3.122575
 21
-5.662731
  0
LINE
  8
Layer0$C$L0
 10
3.187575
 20
-5.724731
 11
3.122575
 21
-5.724731
  0
LINE
  8
Layer0$C$L0
 10
3.187575
 20
-6.442731
 11
3.187575
 21
-5.724731
  0
LINE
  8
Layer0$C$L0
 10
2.377094
 20
-4.534732
 11
2.367575
 21
-5.846731
  0
LINE
  8
Layer0$C$L0
 10
2.367575
 20
-6.442731
 11
2.367575
 21
-5.846731
  0
LINE
  8
Layer0$C$L0
 10
3.113889
 20
-5.662731
 11
3.113889
 21
-4.787731
  0
LINE
  8
Layer0$C$L0
 10
-2.632122
 20
-3.875000
 11
-2.632122
 21
-1.000000
  0
LINE
  8
Layer0$C$L0
 10
2.367575
 20
-6.442731
 11
3.187575
 21
-6.442731
  0
ARC
  8
Layer0$C$L0
 10
2.844900
 20
-4.852998
 40
0.199291
 50
94.313499
 51
141.055796
  0
ARC
  8
Layer0$C$L0
 10
2.844900
 20
-4.653707
 40
1.500000E-02
 50
182.157197
 51
357.842790
  0
ARC
  8
Layer0$C$L0
 10
2.844900
 20
-4.852998
 40
0.199291
 50
39.729602
 51
85.686506
  0
LINE
  8
Layer0$C$L0
 10
2.689900
 20
-4.727731
 11
2.999900
 21
-4.727731
  0
LINE
  8
Layer0$C$L0
 10
2.999900
 20
-4.787731
 11
2.999900
 21
-4.727731
  0
LINE
  8
Layer0$C$L0
 10
2.689900
 20
-4.787731
 11
2.689900
 21
-4.727731
  0
ARC
  8
Layer0$C$L0
 10
-2.292428
 20
-4.931818
 40
0.199291
 50
94.313499
 51
141.055796
  0
ARC
  8
Layer0$C$L0
 10
-2.292428
 20
-4.732528
 40
1.500000E-02
 50
182.157197
 51
357.842790
  0
ARC
  8
Layer0$C$L0
 10
-2.292428
 20
-4.931818
 40
0.199291
 50
39.729602
 51
85.686506
  0
LINE
  8
Layer0$C$L0
 10
-2.447428
 20
-4.806552
 11
-2.137428
 21
-4.806552
  0
LINE
  8
Layer0$C$L0
 10
-2.137428
 20
-4.866552
 11
-2.137428
 21
-4.806552
  0
LINE
  8
Layer0$C$L0
 10
-2.447428
 20
-4.866552
 11
-2.447428
 21
-4.806552
  0
INSERT
  8
Layer0$C$L0
  2
REV-LINESP
 10
10.844397
 20
-0.238512
  0
INSERT
  8
Layer0$C$L0
  2
REV-LINESP
 10
10.844397
 20
-4.078392E-02
  0
INSERT
  8
Layer0$C$L0
  2
BP
 10
3.184486
 20
-4.745510
  0
TEXT
  8
Layer0$C$L0
 10
1.531648
 20
-3.625113
 40
0.125000
  1
63130
 72
     5
 11
2.123223
 21
-3.625113
  0
TEXT
  8
Layer0$C$L0
 10
1.523696
 20
-2.574257
 40
0.125000
  1
62130
 72
     5
 11
2.115272
 21
-2.574257
  0
LINE
  8
Layer0$C$L0
 10
-2.632122
 20
-3.875000
 11
-1.812122
 21
-3.875000
  0
TEXT
  8
Layer0$C$L0
 10
9.373093
 20
-3.599534
 40
0.125000
  1
LR69363
 72
     5
 11
10.214668
 21
-3.599534
  0
TEXT
  8
Layer0$C$L0
 10
9.359888
 20
-2.586875
 40
0.125000
  1
LR69363
 72
     5
 11
10.201463
 21
-2.586875
  0
TEXT
  8
Layer0$C$L0
 10
8.290966
 20
-3.590664
 40
0.125000
  1
XCFR2
 72
     5
 11
8.882541
 21
-3.590664
  0
TEXT
  8
Layer0$C$L0
 10
8.204421
 20
-2.588130
 40
0.125000
  1
XCFR2
 72
     5
 11
8.795996
 21
-2.588130
  0
TEXT
  8
Layer0$C$L0
 10
7.083954
 20
-3.609113
 40
0.125000
  1
E73571
 72
     5
 11
7.800530
 21
-3.609113
  0
TEXT
  8
Layer0$C$L0
 10
7.134217
 20
-2.588130
 40
0.125000
  1
E73571
 72
     5
 11
7.850792
 21
-2.588130
  0
TEXT
  8
Layer0$C$L0
 10
9.292054
 20
-1.895371
 40
0.125000
  1
REPORT NO.
 72
     5
 11
10.508630
 21
-1.895371
  0
TEXT
  8
Layer0$C$L0
 10
8.116597
 20
-1.895371
 40
0.125000
  1
GUIDE NO.
 72
     5
 11
9.208173
 21
-1.895371
  0
TEXT
  8
Layer0$C$L0
 10
9.563314
 20
-1.494941
 40
0.125000
  1
CSA
 72
     5
 11
9.904890
 21
-1.494941
  0
TEXT
  8
Layer0$C$L0
 10
7.858256
 20
-1.469107
 40
0.125000
  1
U/L
 72
     5
 11
8.199831
 21
-1.469107
  0
TEXT
  8
Layer0$C$L0
 10
7.057395
 20
-1.895371
 40
0.125000
  1
FILE NO.
 72
     5
 11
8.023970
 21
-1.895371
  0
TEXT
  8
Layer0$C$L0
 10
5.690981
 20
-3.893213
 40
0.125000
  1
#10-#14 20
 72
     5
 11
6.907557
 21
-3.893213
  0
TEXT
  8
Layer0$C$L0
 10
5.682446
 20
-3.577342
 40
0.125000
  1
#8      25
 72
     5
 11
6.899021
 21
-3.577342
  0
TEXT
  8
Layer0$C$L0
 10
5.656834
 20
-3.304156
 40
0.125000
  1
#4-#6   35
 72
     5
 11
6.873409
 21
-3.304156
  0
TEXT
  8
Layer0$C$L0
 10
5.668145
 20
-2.986727
 40
0.125000
  1
#10-#14 20
 72
     5
 11
6.884720
 21
-2.986727
  0
TEXT
  8
Layer0$C$L0
 10
5.681796
 20
-2.640002
 40
0.125000
  1
#8      25
 72
     5
 11
6.898371
 21
-2.640002
  0
TEXT
  8
Layer0$C$L0
 10
5.673605
 20
-2.219565
 40
0.125000
  1
#4-#6   35
 72
     5
 11
6.890181
 21
-2.219565
  0
TEXT
  8
Layer0$C$L0
 10
4.735147
 20
-3.571132
 40
0.125000
  1
#4-#14
 72
     5
 11
5.451723
 21
-3.571132
  0
TEXT
  8
Layer0$C$L0
 10
4.728838
 20
-2.593185
 40
0.125000
  1
#4-#14
 72
     5
 11
5.445413
 21
-2.593185
  0
TEXT
  8
Layer0$C$L0
 10
3.309613
 20
-3.813902
 40
0.125000
  1
#8-#14  50
 72
     5
 11
4.526189
 21
-3.813902
  0
TEXT
  8
Layer0$C$L0
 10
3.321724
 20
-3.377907
 40
0.125000
  1
2/0-#6 120
 72
     5
 11
4.538299
 21
-3.377907
  0
TEXT
  8
Layer0$C$L0
 10
3.285391
 20
-3.014578
 40
0.125000
  1
#10-#14 35
 72
     5
 11
4.501967
 21
-3.014578
  0
TEXT
  8
Layer0$C$L0
 10
3.307746
 20
-2.709079
 40
0.125000
  1
#8      40
 72
     5
 11
4.524321
 21
-2.709079
  0
TEXT
  8
Layer0$C$L0
 10
3.315745
 20
-2.429064
 40
0.125000
  1
#4-#6   45
 72
     5
 11
4.532321
 21
-2.429064
  0
TEXT
  8
Layer0$C$L0
 10
3.299745
 20
-2.157049
 40
0.125000
  1
2/0-#3  50
 72
     5
 11
4.516320
 21
-2.157049
  0
TEXT
  8
Layer0$C$L0
 10
2.304404
 20
-3.629462
 40
0.125000
  1
2/0-#14
 72
     5
 11
3.145979
 21
-3.629462
  0
TEXT
  8
Layer0$C$L0
 10
2.331291
 20
-2.580567
 40
0.125000
  1
2/0-#14
 72
     5
 11
3.172867
 21
-2.580567
  0
TEXT
  8
Layer0$C$L0
 10
5.907772
 20
-1.895371
 40
0.125000
  1
TORQUE
 72
     5
 11
6.624347
 21
-1.895371
  0
TEXT
  8
Layer0$C$L0
 10
5.219851
 20
-1.589018
 40
0.125000
  1
SECONDARY
 72
     5
 11
6.311426
 21
-1.589018
  0
TEXT
  8
Layer0$C$L0
 10
4.771066
 20
-1.895371
 40
0.125000
  1
RANGE
 72
     5
 11
5.362642
 21
-1.895371
  0
TEXT
  8
Layer0$C$L0
 10
3.523757
 20
-1.885034
 40
0.125000
  1
TORQUE
 72
     5
 11
4.240332
 21
-1.885034
  0
TEXT
  8
Layer0$C$L0
 10
2.435697
 20
-1.885034
 40
0.125000
  1
RANGE
 72
     5
 11
3.027272
 21
-1.885034
  0
TEXT
  8
Layer0$C$L0
 10
2.832911
 20
-1.613138
 40
0.125000
  1
PRIMARY
 72
     5
 11
3.674487
 21
-1.613138
  0
TEXT
  8
Layer0$C$L0
 10
3.084342
 20
-1.321549
 40
0.125000
  1
WIRE RANGE & TORQUE (IN-LBS)
 72
     5
 11
6.550917
 21
-1.321549
  0
TEXT
  8
Layer0$C$L0
 10
1.580539
 20
-1.662863
 40
0.125000
  1
P/N
 72
     5
 11
1.922114
 21
-1.662863
  0
CIRCLE
  8
Layer0$C$L0
 10
-2.286122
 20
-1.910555
 40
0.187500
  0
CIRCLE
  8
Layer0$C$L0
 10
-2.286122
 20
-1.910555
 40
0.163125
  0
LINE
  8
Layer0$C$L0
 10
-2.192372
 20
-1.964682
 11
-2.192372
 21
-1.856428
  0
LINE
  8
Layer0$C$L0
 10
-2.286122
 20
-2.018808
 11
-2.192372
 21
-1.964682
  0
LINE
  8
Layer0$C$L0
 10
-2.379872
 20
-1.964682
 11
-2.286122
 21
-2.018808
  0
LINE
  8
Layer0$C$L0
 10
-2.379872
 20
-1.856428
 11
-2.379872
 21
-1.964682
  0
LINE
  8
Layer0$C$L0
 10
-2.286122
 20
-1.802302
 11
-2.379872
 21
-1.856428
  0
LINE
  8
Layer0$C$L0
 10
-2.192372
 20
-1.856428
 11
-2.286122
 21
-1.802302
  0
LINE
  8
Layer0$C$L0
 10
-2.616122
 20
-2.942554
 11
-1.956122
 21
-2.942554
  0
LINE
  8
Layer0$C$L0
 10
-2.616122
 20
-2.568555
 11
-1.956122
 21
-2.568555
  0
CIRCLE
  8
Layer0$C$L0
 10
-2.436122
 20
-3.129555
 40
0.106500
  0
CIRCLE
  8
Layer0$C$L0
 10
-2.136122
 20
-3.129555
 40
0.106500
  0
CIRCLE
  8
Layer0$C$L0
 10
-2.436122
 20
-2.755555
 40
0.106500
  0
CIRCLE
  8
Layer0$C$L0
 10
-2.136122
 20
-2.755555
 40
0.106500
  0
LINE
  8
Layer0$C$L0
 10
-2.345242
 20
-3.074030
 11
-2.491647
 21
-3.220435
  0
LINE
  8
Layer0$C$L0
 10
-2.380597
 20
-3.038674
 11
-2.527002
 21
-3.185080
  0
LINE
  8
Layer0$C$L0
 10
-2.045242
 20
-3.074030
 11
-2.191647
 21
-3.220435
  0
LINE
  8
Layer0$C$L0
 10
-2.080597
 20
-3.038674
 11
-2.227002
 21
-3.185080
  0
LINE
  8
Layer0$C$L0
 10
-2.045242
 20
-2.700030
 11
-2.191647
 21
-2.846436
  0
LINE
  8
Layer0$C$L0
 10
-2.345242
 20
-2.700030
 11
-2.491647
 21
-2.846436
  0
LINE
  8
Layer0$C$L0
 10
-2.380597
 20
-2.664675
 11
-2.527002
 21
-2.811080
  0
LINE
  8
Layer0$C$L0
 10
-2.080597
 20
-2.664675
 11
-2.227002
 21
-2.811080
  0
LINE
  8
Layer0$C$L0
 10
-2.286122
 20
-2.445910
 11
-2.321477
 21
-2.481266
  0
LINE
  8
Layer0$C$L0
 10
-2.321477
 20
-2.410555
 11
-2.356832
 21
-2.445910
  0
LINE
  8
Layer0$C$L0
 10
-2.286122
 20
-2.445910
 11
-2.250767
 21
-2.481265
  0
LINE
  8
Layer0$C$L0
 10
-2.250766
 20
-2.410555
 11
-2.215411
 21
-2.445910
  0
LINE
  8
Layer0$C$L0
 10
-2.356832
 20
-2.445910
 11
-2.321477
 21
-2.481266
  0
LINE
  8
Layer0$C$L0
 10
-2.215411
 20
-2.445910
 11
-2.250767
 21
-2.481265
  0
LINE
  8
Layer0$C$L0
 10
-2.250766
 20
-2.339845
 11
-2.215411
 21
-2.375199
  0
LINE
  8
Layer0$C$L0
 10
-2.321477
 20
-2.339845
 11
-2.356833
 21
-2.375199
  0
LINE
  8
Layer0$C$L0
 10
-2.356833
 20
-2.375199
 11
-2.321477
 21
-2.410555
  0
LINE
  8
Layer0$C$L0
 10
-2.215411
 20
-2.375199
 11
-2.250766
 21
-2.410555
  0
LINE
  8
Layer0$C$L0
 10
-2.250766
 20
-2.339845
 11
-2.286122
 21
-2.375199
  0
LINE
  8
Layer0$C$L0
 10
-2.286122
 20
-2.375199
 11
-2.321477
 21
-2.339845
  0
LINE
  8
Layer0$C$L0
 10
-2.616122
 20
-1.562500
 11
-1.956122
 21
-1.562500
  0
LINE
  8
Layer0$C$L0
 10
-2.616122
 20
-3.312500
 11
-1.956122
 21
-3.312500
  0
LINE
  8
Layer0$C$L0
 10
-1.956122
 20
-1.562500
 11
-1.956122
 21
-3.312500
  0
LINE
  8
Layer0$C$L0
 10
-2.616122
 20
-1.562500
 11
-2.616122
 21
-3.312500
  0
LINE
  8
Layer0$C$L0
 10
-2.552122
 20
-1.562500
 11
-2.552122
 21
-1.000000
  0
ARC
  8
Layer0$C$L0
 10
-1.880476
 20
-3.683500
 40
0.143000
 50
118.644361
 51
241.355635
  0
LINE
  8
Layer0$C$L0
 10
-2.632122
 20
-1.000000
 11
-1.810807
 21
-1.000000
  0
CIRCLE
  8
Layer0$C$L0
 10
-2.286122
 20
-3.562000
 40
0.101000
  0
CIRCLE
  8
Layer0$C$L0
 10
-2.286122
 20
-1.311999
 40
0.101000
  0
LINE
  8
Layer0$C$L0
 10
-1.812122
 20
-3.557895
 11
-1.812122
 21
-1.317105
  0
LINE
  8
Layer0$C$L0
 10
-1.812122
 20
-3.875000
 11
-1.812122
 21
-3.809106
  0
LINE
  8
Layer0$C$L0
 10
-2.552122
 20
-3.875000
 11
-2.552122
 21
-3.312500
  0
LINE
  8
Layer0$C$L0
 10
-1.810807
 20
-1.066619
 11
-1.810807
 21
-1.000000
  0
CIRCLE
  8
Layer0$C$L0
 10
-1.880476
 20
-3.683500
 40
5.554999E-02
  0
CIRCLE
  8
Layer0$C$L0
 10
-1.880476
 20
-1.191500
 40
5.554999E-02
  0
LINE
  8
Layer0$C$L0
 10
-1.949026
 20
-1.066001
 11
-1.949026
 21
-1.000000
  0
LINE
  8
Layer0$C$L0
 10
-1.820476
 20
-1.087577
 11
-1.820476
 21
-1.000000
  0
LINE
  8
Layer0$C$L0
 10
-1.940476
 20
-1.087577
 11
-1.940476
 21
-1.000000
  0
LINE
  8
Layer0$C$L0
 10
-1.820476
 20
-3.579577
 11
-1.820476
 21
-1.295423
  0
ARC
  8
Layer0$C$L0
 10
-1.880476
 20
-1.191500
 40
0.120000
 50
299.999967
 51
420.000025
  0
ARC
  8
Layer0$C$L0
 10
-1.880476
 20
-1.191500
 40
0.143000
 50
298.554699
 51
420.843663
  0
LINE
  8
Layer0$C$L0
 10
-1.940476
 20
-3.579577
 11
-1.940476
 21
-1.295423
  0
LINE
  8
Layer0$C$L0
 10
-1.949026
 20
-3.558002
 11
-1.949026
 21
-1.316998
  0
ARC
  8
Layer0$C$L0
 10
-1.880476
 20
-1.191500
 40
0.120000
 50
119.999990
 51
240.000034
  0
ARC
  8
Layer0$C$L0
 10
-1.880476
 20
-1.191500
 40
0.143000
 50
118.644361
 51
241.355663
  0
ARC
  8
Layer0$C$L0
 10
-1.880476
 20
-3.683500
 40
0.120000
 50
119.999990
 51
240.000034
  0
ARC
  8
Layer0$C$L0
 10
-1.880476
 20
-3.683500
 40
0.120000
 50
299.999967
 51
420.000025
  0
ARC
  8
Layer0$C$L0
 10
-1.880476
 20
-3.683500
 40
0.143000
 50
298.554699
 51
421.445293
  0
LINE
  8
Layer0$C$L0
 10
-1.820476
 20
-3.875000
 11
-1.820476
 21
-3.787423
  0
LINE
  8
Layer0$C$L0
 10
-1.940476
 20
-3.875000
 11
-1.940476
 21
-3.787423
  0
LINE
  8
Layer0$C$L0
 10
-1.949026
 20
-3.875000
 11
-1.949026
 21
-3.808999
  0
LINE
  8
Layer0$C$L0
 10
-2.286122
 20
-3.370361
 11
-2.286122
 21
-3.798373
  0
LINE
  8
Layer0$C$L0
 10
-2.286122
 20
-1.124762
 11
-2.286122
 21
-1.494143
  0
LINE
  8
Layer0$C$L0
 10
-2.482480
 20
-1.311999
 11
-2.124826
 21
-1.311999
  0
LINE
  8
Layer0$C$L0
 10
-2.470753
 20
-3.562000
 11
-2.095510
 21
-3.562000
  0
LINE
  8
Layer0$C$L0
 10
-2.035120
 20
-5.564921
 11
-2.035120
 21
-5.436552
  0
LINE
  8
Layer0$C$L0
 10
-2.235120
 20
-5.564921
 11
-2.235120
 21
-5.436552
  0
LINE
  8
Layer0$C$L0
 10
-2.335120
 20
-5.564921
 11
-2.335120
 21
-5.436552
  0
LINE
  8
Layer0$C$L0
 10
-2.535120
 20
-5.564921
 11
-2.535120
 21
-5.436552
  0
LINE
  8
Layer0$C$L0
 10
-2.514413
 20
-5.069921
 11
-2.355826
 21
-5.069921
  0
LINE
  8
Layer0$C$L0
 10
-2.535120
 20
-5.119921
 11
-2.335120
 21
-5.119921
  0
LINE
  8
Layer0$C$L0
 10
-2.535120
 20
-5.169921
 11
-2.335120
 21
-5.169921
  0
LINE
  8
Layer0$C$L0
 10
-2.214412
 20
-5.069921
 11
-2.055827
 21
-5.069921
  0
LINE
  8
Layer0$C$L0
 10
-2.235120
 20
-5.119921
 11
-2.035120
 21
-5.119921
  0
LINE
  8
Layer0$C$L0
 10
-2.235120
 20
-5.169921
 11
-2.035120
 21
-5.169921
  0
LINE
  8
Layer0$C$L0
 10
-2.214412
 20
-5.414920
 11
-2.055827
 21
-5.414920
  0
LINE
  8
Layer0$C$L0
 10
-2.514413
 20
-5.414921
 11
-2.355826
 21
-5.414921
  0
LINE
  8
Layer0$C$L0
 10
-2.535120
 20
-5.464921
 11
-2.335120
 21
-5.464921
  0
LINE
  8
Layer0$C$L0
 10
-2.235120
 20
-5.464921
 11
-2.035120
 21
-5.464921
  0
LINE
  8
Layer0$C$L0
 10
-2.235120
 20
-5.514921
 11
-2.035120
 21
-5.514921
  0
LINE
  8
Layer0$C$L0
 10
-2.535120
 20
-5.514921
 11
-2.335120
 21
-5.514921
  0
LINE
  8
Layer0$C$L0
 10
-2.535120
 20
-5.564921
 11
-2.335120
 21
-5.564921
  0
LINE
  8
Layer0$C$L0
 10
-2.235120
 20
-5.564921
 11
-2.035120
 21
-5.564921
  0
LINE
  8
Layer0$C$L0
 10
-2.235120
 20
-5.219921
 11
-2.035120
 21
-5.219921
  0
LINE
  8
Layer0$C$L0
 10
-2.535120
 20
-5.219922
 11
-2.335120
 21
-5.219922
  0
LINE
  8
Layer0$C$L0
 10
-2.535120
 20
-5.219922
 11
-2.435120
 21
-5.266552
  0
LINE
  8
Layer0$C$L0
 10
-2.235120
 20
-5.219921
 11
-2.135120
 21
-5.266552
  0
LINE
  8
Layer0$C$L0
 10
-2.235120
 20
-5.564921
 11
-2.135120
 21
-5.611552
  0
LINE
  8
Layer0$C$L0
 10
-2.535120
 20
-5.564921
 11
-2.435120
 21
-5.611552
  0
LINE
  8
Layer0$C$L0
 10
-2.435120
 20
-5.611552
 11
-2.335120
 21
-5.564921
  0
LINE
  8
Layer0$C$L0
 10
-2.135120
 20
-5.611552
 11
-2.035120
 21
-5.564921
  0
LINE
  8
Layer0$C$L0
 10
-2.135120
 20
-5.266552
 11
-2.035120
 21
-5.219921
  0
LINE
  8
Layer0$C$L0
 10
-2.435120
 20
-5.266552
 11
-2.335120
 21
-5.219922
  0
LINE
  8
Layer0$C$L0
 10
-2.035120
 20
-5.219921
 11
-2.035120
 21
-5.091552
  0
LINE
  8
Layer0$C$L0
 10
-2.235120
 20
-5.219921
 11
-2.235120
 21
-5.091552
  0
LINE
  8
Layer0$C$L0
 10
-2.335120
 20
-5.219922
 11
-2.335120
 21
-5.091552
  0
LINE
  8
Layer0$C$L0
 10
-2.535120
 20
-5.219922
 11
-2.535120
 21
-5.091552
  0
ARC
  8
Layer0$C$L0
 10
-2.135120
 20
-5.511552
 40
0.125000
 50
21.235874
 51
336.643632
  0
ARC
  8
Layer0$C$L0
 10
-2.135120
 20
-5.166552
 40
0.125000
 50
11.437184
 51
346.442330
  0
CIRCLE
  8
Layer0$C$L0
 10
-2.435120
 20
-5.511552
 40
0.125000
  0
CIRCLE
  8
Layer0$C$L0
 10
-2.435120
 20
-5.166552
 40
0.125000
  0
LINE
  8
Layer0$C$L0
 10
-2.615120
 20
-4.866552
 11
-2.007509
 21
-4.866552
  0
LINE
  8
Layer0$C$L0
 10
-2.553918
 20
-6.396552
 11
-1.950270
 21
-6.396552
  0
LINE
  8
Layer0$C$L0
 10
-2.553918
 20
-5.925552
 11
-2.553918
 21
-6.396552
  0
LINE
  8
Layer0$C$L0
 10
-1.738918
 20
-5.925552
 11
-1.815576
 21
-5.925552
  0
ARC
  8
Layer0$C$L0
 10
-1.852122
 20
-4.613553
 40
3.000000E-02
 50
0.285852
 51
90.000003
  0
ARC
  8
Layer0$C$L0
 10
-1.912403
 20
-4.613553
 40
3.000000E-02
 50
90.000003
 51
179.747220
  0
ARC
  8
Layer0$C$L0
 10
-1.972821
 20
-4.613553
 40
3.000000E-02
 50
90.000003
 51
178.939768
  0
ARC
  8
Layer0$C$L0
 10
-1.791754
 20
-4.613553
 40
3.000000E-02
 50
0.996984
 51
90.000003
  0
LINE
  8
Layer0$C$L0
 10
-1.812603
 20
-6.521552
 11
-1.822122
 21
-4.613403
  0
LINE
  8
Layer0$C$L0
 10
-1.942403
 20
-4.613420
 11
-1.950270
 21
-6.396552
  0
LINE
  8
Layer0$C$L0
 10
-1.761759
 20
-4.613030
 11
-1.738941
 21
-5.924219
  0
LINE
  8
Layer0$C$L0
 10
-2.002816
 20
-4.612997
 11
-2.035824
 21
-6.396552
  0
LINE
  8
Layer0$C$L0
 10
-1.972821
 20
-4.583552
 11
-1.791754
 21
-4.583552
  0
LINE
  8
Layer0$C$L0
 10
-2.553918
 20
-5.990551
 11
-2.028310
 21
-5.990551
  0
LINE
  8
Layer0$C$L0
 10
2.689424
 20
-5.066796
 11
2.990759
 21
-5.066796
  0
LINE
  8
Layer0$C$L0
 10
2.660092
 20
-5.166796
 11
3.020092
 21
-5.166796
  0
LINE
  8
Layer0$C$L0
 10
2.660092
 20
-5.266796
 11
3.020092
 21
-5.266796
  0
LINE
  8
Layer0$C$L0
 10
2.840092
 20
-5.350732
 11
3.020092
 21
-5.266796
  0
LINE
  8
Layer0$C$L0
 10
2.660092
 20
-5.266796
 11
2.840092
 21
-5.350731
  0
LINE
  8
Layer0$C$L0
 10
3.020092
 20
-5.266796
 11
3.020092
 21
-5.100988
  0
LINE
  8
Layer0$C$L0
 10
2.660092
 20
-5.266796
 11
2.660092
 21
-5.100988
  0
LINE
  8
Layer0$C$L0
 10
3.122575
 20
-5.662731
 11
2.578674
 21
-5.662731
  0
LINE
  8
Layer0$C$L0
 10
3.061955
 20
-5.911731
 11
2.583282
 21
-5.911731
  0
LINE
  8
Layer0$C$L0
 10
2.527793
 20
-4.504731
 11
2.346726
 21
-4.504731
  0
LINE
  8
Layer0$C$L0
 10
2.557788
 20
-4.534176
 11
2.590796
 21
-6.317731
  0
LINE
  8
Layer0$C$L0
 10
2.316731
 20
-4.534209
 11
2.293913
 21
-5.845398
  0
LINE
  8
Layer0$C$L0
 10
2.497375
 20
-4.534599
 11
2.505242
 21
-6.317731
  0
ARC
  8
Layer0$C$L0
 10
2.346726
 20
-4.534732
 40
3.000000E-02
 50
89.999996
 51
179.003016
  0
ARC
  8
Layer0$C$L0
 10
2.527793
 20
-4.534732
 40
3.000000E-02
 50
1.060232
 51
89.999996
  0
ARC
  8
Layer0$C$L0
 10
2.467375
 20
-4.534732
 40
3.000000E-02
 50
0.252780
 51
89.999996
  0
ARC
  8
Layer0$C$L0
 10
2.407094
 20
-4.534732
 40
3.000000E-02
 50
89.999996
 51
179.714148
  0
LINE
  8
Layer0$C$L0
 10
2.293890
 20
-5.846731
 11
2.367575
 21
-5.846731
  0
LINE
  8
Layer0$C$L0
 10
3.063940
 20
-6.317731
 11
2.505242
 21
-6.317731
  0
LINE
  8
Layer0$C$L0
 10
3.113889
 20
-4.787731
 11
2.562480
 21
-4.787731
  0
CIRCLE
  8
Layer0$C$L0
 10
2.840092
 20
-5.225731
 40
0.219000
  0
LINE
  8
Layer0$C$L0
 10
-2.558918
 20
-5.925552
 11
-2.635576
 21
-5.925552
  0
LINE
  8
Layer0$C$L0
 10
5.626574
 20
-2.706198
 11
6.966574
 21
-2.706198
  0
LINE
  8
Layer0$C$L0
 10
5.626574
 20
-2.333198
 11
6.966574
 21
-2.333198
  0
LINE
  8
Layer0$C$L0
 10
3.261573
 20
-3.530198
 11
4.596573
 21
-3.530198
  0
LINE
  8
Layer0$C$L0
 10
3.261573
 20
-2.820198
 11
4.596573
 21
-2.820198
  0
LINE
  8
Layer0$C$L0
 10
6.966574
 20
-2.950198
 11
10.461575
 21
-2.950198
  0
LINE
  8
Layer0$C$L0
 10
1.421573
 20
-3.080198
 11
6.966574
 21
-3.080198
  0
LINE
  8
Layer0$C$L0
 10
3.261573
 20
-2.520198
 11
4.596573
 21
-2.520198
  0
LINE
  8
Layer0$C$L0
 10
3.261573
 20
-2.240198
 11
4.596573
 21
-2.240198
  0
LINE
  8
Layer0$C$L0
 10
1.421573
 20
-1.960198
 11
10.461575
 21
-1.960198
  0
LINE
  8
Layer0$C$L0
 10
6.966574
 20
-3.940198
 11
6.966574
 21
-1.120198
  0
LINE
  8
Layer0$C$L0
 10
5.626574
 20
-3.940198
 11
5.626574
 21
-1.680198
  0
LINE
  8
Layer0$C$L0
 10
4.596573
 20
-3.940198
 11
4.596573
 21
-1.700198
  0
LINE
  8
Layer0$C$L0
 10
1.421573
 20
-3.940198
 11
10.461575
 21
-3.940198
  0
LINE
  8
Layer0$C$L0
 10
3.261573
 20
-3.940198
 11
3.261573
 21
-1.680198
  0
LINE
  8
Layer0$C$L0
 10
1.421573
 20
-3.940198
 11
1.421573
 21
-1.120198
  0
LINE
  8
Layer0$C$L0
 10
2.226573
 20
-3.940198
 11
2.226573
 21
-1.120198
  0
LINE
  8
Layer0$C$L0
 10
1.421573
 20
-1.120198
 11
10.461575
 21
-1.120198
  0
LINE
  8
Layer0$C$L0
 10
2.226573
 20
-1.400198
 11
6.966574
 21
-1.400198
  0
LINE
  8
Layer0$C$L0
 10
2.226573
 20
-1.680198
 11
10.461575
 21
-1.680198
  0
LINE
  8
Layer0$C$L0
 10
5.626574
 20
-3.380198
 11
6.966574
 21
-3.380198
  0
LINE
  8
Layer0$C$L0
 10
8.016571
 20
-3.940198
 11
8.016571
 21
-1.680198
  0
LINE
  8
Layer0$C$L0
 10
9.206573
 20
-3.940198
 11
9.206573
 21
-1.120198
  0
LINE
  8
Layer0$C$L0
 10
5.626574
 20
-3.660198
 11
6.966574
 21
-3.660198
  0
LINE
  8
Layer0$C$L0
 10
10.461575
 20
-3.940198
 11
10.461575
 21
-1.120198
  0
ENDSEC
  0
EOF
